Завантажити та скачати торренти українською


Чак і Ларрі: Запальні молодята / I Now Pronounce You Chuck & Larry (2007) 720p 2хUkr/Eng | Sub Eng

Нові коментарі

Нова тема   Відповісти
Автор Повідомлення
11FrYkT 
Модератор відео


З нами з: 20.02.11
Востаннє: 10.12.16
Повідомлень: 3135

2012-07-15 12:20  
Чак і Ларрі: Запальні молодята / I Now Pronounce You Chuck & Larry (2007) 720p 2хUkr/Eng | Sub Eng

Чак і Ларрі: Запальні молодята / I Now Pronounce You Chuck & Larry (2007) 720p 2хUkr/Eng | Sub Eng

«Вони нормальні мужики, але про це ні слова!»




Жанр: комедія, романтичний
Країна: США



Кіностудія / кінокомпанія: Universal Pictures, Relativity Media, Happy Madison Productions
Режисер: Денніс Дуган
Актори: Адам Сендлер, Кевін Джеймс, Джессіка Біл, Ден Ейкройд, Вінг Реймс, Стіві Бушемі, Ніколас Туртурро, Аллен Коверт, Рейчел Детч.

Сюжет:
Двійко неодружених пожежників вляпались в історію, маючи найкращі наміри. Вдівець Ларрі прагне лиш одного, захистити власну родину. Його приятель Чак хоче теж одного, насолоджуватись парубоцьким життям... Ларрі хоче застрахувати своє життя так, аби гроші отримали його діти. Для цього потрібно лиш одне: записати в анкеті, наприклад, Чака своєю половиною... герої-рятувальники і найпопулярніші хлопці в дільниці вирішують прикинутись гей-парою ...


Тривалість: 01:55:21
Якість: 720p
Відео:
кодек:
розмір кадру: 1280 x 696
бітрейт: 7553 кб/с

Аудіо # 1:
мова: українська
переклад: професійний дубльований R5
кодек: 5.1
бітрейт: 384 кб/с

Аудіо # 2:
мова: українська
переклад: багатоголосий закадровий | Так треба продакшн на замовлення ТРК Україна |
кодек: 2.0
бітрейт: 192 кб/с

Аудіо # 3:
мова: англійська
переклад: оригінал
кодек: 5.1
бітрейт: 1536 кб/с

Субтитри:
мова: англійська
тип: програмні (м'які)
формат: *.srt
MediaInfo
Код:
I Now Pronounce You Chuck and Larry (2007) 720p.mkv
   General
      UniqueID : 171771052077760443349323399986311640292 (0x8139E6BA200FE691A51571112AACB4E4)
      Complete name : I Now Pronounce You Chuck and Larry (2007) 720p.mkv
      Format : Matroska
      File size : 7.93 GiB
      Duration : 1h 55mn
      Overall bit rate : 9 834 Kbps
      Movie name : I Now Pronounce You Chuck & Larry (2007) 720p
      Encoded date : UTC 2012-07-15 09:39:57
      Writing application : mkvmerge v4.9.1 ('Ich will') зібрано Jul 11 2011 23:53:15
      Writing library : libebml v1.2.1 + libmatroska v1.1.1
      Cover : Yes / Yes
   Video #1
      ID : 1
      Format : AVC
      Format/Info : Advanced Video Codec
      Format profile : [email protected]
      Format settings, CABAC : Yes
      Format settings, ReFrames : 8 frames
      Codec ID : V_MPEG4/ISO/AVC
      Duration : 1h 55mn
      Bit rate : 7 553 Kbps
      Width : 1 280 pixels
      Height : 696 pixels
      Display aspect ratio : 16:9
      Frame rate : 23.976 fps
      Color space : YUV
      Chroma subsampling : 4:2:0
      Bit depth : 8 bits
      Scan type : Progressive
      Bits/(Pixel*Frame) : 0.354
      Stream size : 6.09 GiB (77%)
      Writing library : core 122 r2184kMod 5c85e0a
      Encoding settings : cabac=1 / ref=8 / deblock=1:-3:-3 / analyse=0x3:0x113 / me=umh / subme=11 / psy=1 / fade_compensate=0.00 / psy_rd=1.00:0.05 / mixed_ref=1 / me_range=48 / chroma_me=1 / trellis=2 / 8x8dct=1 / cqm=0 / deadzone=21,11 / fast_pskip=1 / chroma_qp_offset=-3 / threads=12 / sliced_threads=0 / nr=0 / decimate=1 / interlaced=0 / bluray_compat=0 / constrained_intra=0 / bframes=16 / b_pyramid=2 / b_adapt=2 / b_bias=0 / direct=1 / weightb=1 / open_gop=0 / weightp=2 / keyint=250 / keyint_min=23 / scenecut=40 / intra_refresh=0 / rc_lookahead=40 / rc=crf / mbtree=0 / crf=17.0000 / qcomp=0.60 / qpmin=0 / qpmax=69 / qpstep=4 / vbv_maxrate=50000 / vbv_bufsize=62500 / crf_max=0.0 / nal_hrd=none / ip_ratio=1.40 / pb_ratio=1.30 / aq=3:0.80
      Language : English
      Matrix coefficients : BT.709-5, BT.1361, IEC 61966-2-4 709, SMPTE RP177
   Audio #2
      ID : 2
      Format : AC-3
      Format/Info : Audio Coding 3
      Mode extension : CM (complete main)
      Codec ID : A_AC3
      Duration : 1h 55mn
      Bit rate mode : Constant
      Bit rate : 384 Kbps
      Channel(s) : 6 channels
      Channel positions : Front: L C R, Side: L R, LFE
      Sampling rate : 48.0 KHz
      Bit depth : 16 bits
      Compression mode : Lossy
      Stream size : 317 MiB (4%)
      Title : 5.1 @ 384 kbps - Дубльований, R5
      Language : Ukrainian
   Audio #3
      ID : 3
      Format : AC-3
      Format/Info : Audio Coding 3
      Mode extension : CM (complete main)
      Codec ID : A_AC3
      Duration : 1h 55mn
      Bit rate mode : Constant
      Bit rate : 192 Kbps
      Channel(s) : 2 channels
      Channel positions : Front: L R
      Sampling rate : 48.0 KHz
      Bit depth : 16 bits
      Compression mode : Lossy
      Stream size : 158 MiB (2%)
      Title : 2.0 @ 192 kbps - Багатоголосий, Так Треба Продакшн по замовленню ТРК Україна
      Language : Ukrainian
   Audio #4
      ID : 4
      Format :
      Format/Info : Digital Theater Systems
      Codec ID : A_DTS
      Duration : 1h 55mn
      Bit rate mode : Constant
      Bit rate : 1 510 Kbps
      Channel(s) : 6 channels
      Channel positions : Front: L C R, Side: L R, LFE
      Sampling rate : 48.0 KHz
      Bit depth : 24 bits
      Compression mode : Lossy
      Stream size : 1.22 GiB (15%)
      Title : 5.1 @ 1536 kbps
      Language : English
   Text #5
      ID : 5
      Format : UTF-8
      Codec ID : S_TEXT/UTF8
      Codec ID/Info : UTF-8 Plain Text
      Language : English
Світлини








Джерело: &
Особиста оцінка: 8 - мені сподобалося
Подяку пану Merdiff та пану karvai0 за запис звуку з ТБ


 Трекер:    Зареєстрований   

Завантажити / скачати фільм українською



відео для новачків



 Зареєстрований:   2012-07-15 12:20
 Розмір:   7.93 GB 
 Оцінка фільму:   8.1/10 (Голосів: 9)
   
MutuLI 
Відео Гуртом - фільмокрай
Відео Гуртом - фільмокрай


З нами з: 08.03.09
Востаннє: 10.12.16
Повідомлень: 1252

2012-07-15 15:22  
Доріжки мої, так що зазначте в описі Джерело HDClub & Відео Гуртом
11FrYkT 
Модератор відео


З нами з: 20.02.11
Востаннє: 10.12.16
Повідомлень: 3135

2012-07-15 15:47  
MutuLI , зазначив, але наскільки я розумію коли вказується джерело звідки взято матеріал, а я його взяв повністю з HDClubу, а вже в свою чергу HDClub взяв його тут, тому впринципі нічого страшного що я не вказав
braveboy 
Відео Гуртом - команда HD
Відео Гуртом - команда HD


З нами з: 15.06.10
Востаннє: 29.10.16
Повідомлень: 958

2012-07-15 15:56  
11FrYkT написано:

MediaInfo
Bit rate : 7 553 Kbps


11FrYkT написано:

бітрейт: 7747 кб/с

ratbol 
Модератор HD


З нами з: 03.02.09
Востаннє: 09.12.16
Повідомлень: 1088

2012-07-15 16:23  
MutuLI написано:
Доріжки мої

Тобто дубляж не з двд?
11FrYkT
Так, але прийнято писати, і конкретно, щоб висловити свою подяку.
Щоб якісно відсинхронізувати доріжку треба потратити не одну годину, а людина зробила це для всіх і безкоштовно.
Також треба вказати Merdiff та karvai0, що записували звук з ТБ.

Gelios 
Відео Гуртом - дизайнер
Відео Гуртом - дизайнер


З нами з: 03.09.11
Востаннє: 10.12.16
Повідомлень: 1884

2012-07-15 16:25  
11FrYkT написано:
HDClub взяв його тут

Але ж першоджерело - Гуртом, чи не так?

11FrYkT 
Модератор відео


З нами з: 20.02.11
Востаннє: 10.12.16
Повідомлень: 3135

2012-07-15 16:48  
braveboy , виправив
ratbol , та я не проти, я вказую коли знаю. Тут не знав, виправив одразу як написали.
Згідний що йде багато часу і тд, тому дуже вдячний.

Patriot_ukr 
VIP


З нами з: 06.04.15
Востаннє: 09.12.16
Повідомлень: 492

2016-03-28 16:53  
Poздайте будь ласка.
coca147 
Новенький


З нами з: 11.05.15
Востаннє: 10.12.16
Повідомлень: 4

2016-03-30 05:14  
Patriot_ukr
Забирайте.

Ваш часовий пояс: GMT + 2 Години

Нова тема   Відповісти