Завантажити та скачати торренти українською


Краще не буває / As Good As It Gets (1997) 720p Ukr/Eng | Sub Eng

Нові коментарі

Нова тема   Відповісти
Автор Повідомлення
11FrYkT 
Модератор відео


З нами з: 20.02.11
Востаннє: 02.12.16
Повідомлень: 3060

2012-07-15 09:04  
Краще не буває / As Good As It Gets (1997) 720p Ukr/Eng | Sub Eng

Краще не буває / As Good As It Gets (1997) 720p Ukr/Eng | Sub Eng

«A comedy from the heart that goes for the throat.»



Жанр: драма, мелодрама, комедия
Країна: США



Кіностудія / кінокомпанія: TriStar Pictures, Gracie Films
Режисер: Джеймс Л. Брукс
Актори: Джек Ніколсон/Jack Nicholson, Хелен Хант/Helen Hunt, Ґреґ Кіннер/Greg Kinnear, К'юба Ґудінґ мол./Cuba Gooding Jr., Скіт Ульріх/Skeet Ulrich, Ширлі Найт/Shirley Knight, Єрдлі Сміт/Yeardley Smith, Льюп Онтівейрос/Lupe Ontiveros та ін.

Сюжет:
Мелвін Юдалл, психічно неврівноважений, ексцентричний письменник, ненавидить буквально всіх навколо. Через свою дивну поведінку він самотній і часто потрапляє в комічні ситуації. Але несподівано його течія життя порушується. Мелвіну доводиться доглядати за сусідським собакою, і непомітно для себе, завдяки йому, він стає добрішим і дружелюбним. За стіною власної байдужості йому відкривається прекрасний світ людських почуттів...


Тривалість: 02:18:38
Якість: 720p
Відео:
кодек:
розмір кадру: 1280 х 694
бітрейт: 8572 кб/с

Аудіо # 1:
мова: українська
переклад: багатоголосий закадровий
кодек: 2.0
бітрейт: 192 кб/с

Аудіо # 2:
мова: англійська
переклад: оригінал
кодек: 5.1
бітрейт: 1536 кб/с

Переклад і озвучення виконано:
на замовлення

Субтитри:
мова: англійська
тип: програмні (м'які)
формат: *.srt
MediaInfo
Код:
As Good As It Gets (1997) 720p.mkv
   General
      UniqueID : 232164668112593661067975226138160500807 (0xAEA949E3F651989797DA492C88079047)
      Complete name : As Good As It Gets (1997) 720p.mkv
      Format : Matroska
      File size : 10.2 GiB
      Duration : 2h 18mn
      Overall bit rate : 10.5 Mbps
      Encoded date : UTC 2012-07-14 20:28:53
      Writing application : mkvmerge v4.9.1 ('Ich will') зібрано Jul 11 2011 23:53:15
      Writing library : libebml v1.2.1 + libmatroska v1.1.1
   Video #1
      ID : 1
      Format : AVC
      Format/Info : Advanced Video Codec
      Format profile : [email protected]
      Format settings, CABAC : Yes
      Format settings, ReFrames : 9 frames
      Codec ID : V_MPEG4/ISO/AVC
      Duration : 2h 18mn
      Bit rate : 8 572 Kbps
      Width : 1 280 pixels
      Height : 694 pixels
      Display aspect ratio : 16:9
      Frame rate : 23.976 fps
      Color space : YUV
      Chroma subsampling : 4:2:0
      Bit depth : 8 bits
      Scan type : Progressive
      Bits/(Pixel*Frame) : 0.402
      Stream size : 8.30 GiB (82%)
      Writing library : core 125 r2200 999b753
      Encoding settings : cabac=1 / ref=9 / deblock=1:-3:-3 / analyse=0x3:0x133 / me=umh / subme=11 / psy=1 / psy_rd=1.00:0.05 / mixed_ref=1 / me_range=32 / chroma_me=1 / trellis=2 / 8x8dct=1 / cqm=0 / deadzone=21,11 / fast_pskip=0 / chroma_qp_offset=-3 / threads=3 / lookahead_threads=1 / sliced_threads=0 / nr=0 / decimate=0 / interlaced=0 / bluray_compat=0 / constrained_intra=0 / bframes=8 / b_pyramid=2 / b_adapt=2 / b_bias=0 / direct=3 / weightb=1 / open_gop=0 / weightp=2 / keyint=250 / keyint_min=23 / scenecut=40 / intra_refresh=0 / rc_lookahead=120 / rc=crf / mbtree=1 / crf=17.1 / qcomp=0.75 / qpmin=0 / qpmax=69 / qpstep=4 / ip_ratio=1.40 / aq=1:0.80 / zones=21063,25992,b=1.2/25923,27193,b=1.1/40902,43099,b=1.2/76902,79559,b=1.2/79756,80233,b=1.3/89990,91513,b=1.3/152827,153618,b=1.3/185368,192492,b=1.2/192493,199440,b=0.5
      Language : English
   Audio #2
      ID : 2
      Format : AC-3
      Format/Info : Audio Coding 3
      Mode extension : CM (complete main)
      Codec ID : A_AC3
      Duration : 2h 18mn
      Bit rate mode : Constant
      Bit rate : 192 Kbps
      Channel(s) : 2 channels
      Channel positions : Front: L R
      Sampling rate : 48.0 KHz
      Bit depth : 16 bits
      Compression mode : Lossy
      Stream size : 190 MiB (2%)
      Title : 2.0 192 kbps @ -  Так Треба Продакшн
      Language : Ukrainian
   Audio #3
      ID : 3
      Format :
      Format/Info : Digital Theater Systems
      Codec ID : A_DTS
      Duration : 2h 18mn
      Bit rate mode : Constant
      Bit rate : 1 510 Kbps
      Channel(s) : 6 channels
      Channel positions : Front: L C R, Side: L R, LFE
      Sampling rate : 48.0 KHz
      Bit depth : 24 bits
      Compression mode : Lossy
      Stream size : 1.46 GiB (14%)
      Title :   5.1 1536 kbps
      Language : English
   Text #4
      ID : 4
      Format : UTF-8
      Codec ID : S_TEXT/UTF8
      Codec ID/Info : UTF-8 Plain Text
      Language : English
Світлини






Джерело:
Особиста оцінка: 0 - не дивився


Срібний реліз (на рейтинг впливає 50% завантаженого)
 Трекер:    Зареєстрований   

Завантажити / скачати фільм українською



відео для новачків



 Зареєстрований:   2012-07-15 09:04
 Розмір:   10.15 GB 
 Оцінка фільму:   8.8/10 (Голосів: 8)
   
Інші релізи
   Краще не буває / As Good As It Gets (1997) [MP4, 640x] apvAltisimo  0 / 0   826 MB   2016-04-22 14:03 
   Краще не буває / As Good As It Gets (1997) Ukr/Eng 11FrYkT  4 / 0   2.12 GB   2012-07-11 11:37 
   Краще не буває / As Good As It Gets (1997) Ukr/Eng Bulka27  5 / 1   2.4 GB   2012-04-29 19:09 
   Краще не буває / As Good As It Gets (1997) Undead  2 / 0   1.36 GB   2008-08-11 23:10 
vasya 
Новенький


З нами з: 28.08.08
Востаннє: 05.05.14
Повідомлень: 9

2012-07-15 11:34  
"Із-за своєї дивної поведінки ;... за сусідським собакою, і непомітно для себе, завдяки їй ; ...стає більш добрішим "- не правильно. Правильно - "через свою дивну поведінку, ...завдяки йому(собаці), ...стає добрішим."Вивчайте українську мову!!!
Ваш часовий пояс: GMT + 2 Години

Нова тема   Відповісти