Завантажити та скачати торренти українською


Том і Гек / Tom and Huck (1995) 1080i Ukr/Eng

Нові коментарі

Нова тема   Відповісти
Автор Повідомлення
urij546724 
Відео Гуртом - фільмокрай
Відео Гуртом - фільмокрай


З нами з: 16.03.10
Востаннє: 06.12.16
Повідомлень: 5222

2012-07-10 20:20  
Том і Гек / Tom and Huck (1995) 1080i Ukr/Eng


Слоган:
«A lot of kids get into trouble. These two invented it.»
«Багато дітей потрапляють в біду. Ці двоє винайшли це.»


Жанр: пригодницький, комедія. драма, сімейний, вестерн
Країна: США ()



Кіностудія / кінокомпанія: Painted Fence Productions, Walt Disney Pictures
Режисер: Пітер Хьюіт (Peter Hewitt)
Актори: Джонатан Тейлор Томас (Jonathan Taylor Thomas), Бред Ренфро (Brad Renfro), Ерік Швейг (Eric Schweig), Чарльз Роккет (Charles Rocket), Емі Райт (Amy Wright), Майкл МакШейн (Michael McShane), Меріен Селдес (Marian Seldes)...
Усі актори та їх фото:
Джонатан Тейлор Томас (Jonathan Taylor Thomas), Бред Ренфро (Brad Renfro), Ерік Швейг (Eric Schweig), Чарльз Роккет (Charles Rocket), Емі Райт (Amy Wright), Майкл МакШейн (Michael McShane), Меріен Селдес (Marian Seldes), Рейчел Лі Кук (Rachael Leigh Cook), Ленні Флаерті (Lanny Flaherty), Кортленд Мід (Courtland Mead), Пітер Маккензі (Peter Mackenzie), Хіт Ламбертс (Heath Lamberts), Вільям Ньюман (William Newman), Джої Стінсон (Joey Stinson), Блейк Херон (Blake Heron), Джим Ейкук (Jim Aycock), Енді Стейхл (Andy Stahl), Адріан Робертс (Adrian Roberts), Тіффані Лінн Кларк (Tiffany Lynn Clark), Келлен Хетауей (Kellen Hathaway), Марк Кабус (Mark Cabus), Бронуен Мюррей (Bronwen Murray), Пол Кропфл (Paul Kropfl), Ньюелл Олександр (Newell Alexander), Томмі Леймі (Tommy Lamey), Девід Кауджілл (David Cowgill), Стюарт К. Робінсон (Stuart K. Robinson), Мітч Картер (Mitch Carter), Айк Ейсенманн (Ike Eisenmann), Метью Валенсіа (Mathew Valencia), Блейк МакІвер Юінг (Blake McIver Ewing), Розмарі Олександр (Rosemary Alexander), Шеррі Херсі (Sherry Hursey), Філес Самплер (Philece Sampler), Венді Катлер (Wendy Cutler), Тамара Мелло (Tamara Mello), Еді Мірман (Edie Mirman), Тобі Скотт Ганджер (Toby Scott Ganger), Остін Коттк (Austin Kottke), Кортні Пелдон (Courtney Peldon), Кетрін Зарімба (Katherine Zarimba), Еммі Коллінз (Emmy Collins), Адам Кросбі (Adam Crosby), Рон Клінтон Сміт (Ron Clinton Smith), Вейд Вудс (Wade Woods)





Сюжет:
Від їх витівок налякана вся округа. Кішки і собаки розбігаються, господині замикають вікна і двері, малюки плачуть. Ні, це не монстри із страшної казки вийшли на вулицю міста. Просто нас чекають нові зустрічі з Томом Сойєром і Геком Фінном.


Збори в США: 23 920 048 доларів
Назва фільму у інших країнах
Le avventure di Tom Sawyer e Huck Finn
Італія


The Adventures of Tom and Huck
(невизначена)


Tom és Huck
Угорщина


Tom E Huck - Em Busca do Grande Tesouro
Бразилія


Tom Sawyer
(невизначена)


Tom et Huck
Франція (Назва на ТБ)


Tom og Huck
Норвегія


Tom und Huck
Німеччина


Tom y Huck
Іспанія


Приключения Тома Сойера / Том и Гек
Росія
Media Info
General
ID : 1 (0x1)
Complete name : D:\Tom and Huck (1995) [ukr K1_eng_AC3_5.1] 1080i [Hurtom] by urij546724.ts
Format : MPEG-TS
File size : 4.98 GiB
Duration : 1h 27mn
Overall bit rate mode : Variable
Overall bit rate : 8 100 Kbps
Maximum Overall bit rate : 35.5 Mbps

Video
ID : 4113 (0x1011)
Menu ID : 1 (0x1)
Format : AVC
Format/Info : Advanced Video Codec
Format profile : [email protected]
Format settings, CABAC : Yes
Format settings, ReFrames : 4 frames
Format settings, GOP : M=4, N=32
Codec ID : 27
Duration : 1h 27mn
Bit rate mode : Variable
Bit rate : 6 924 Kbps
Maximum bit rate : 40.0 Mbps
Width : 1 920 pixels
Height : 1 080 pixels
Display aspect ratio : 16:9
Frame rate : 25.000 fps
Standard : Component
Color space : YUV
Chroma subsampling : 4:2:0
Bit depth : 8 bits
Scan type : Interlaced
Scan order : Top Field First
Bits/(Pixel*Frame) : 0.134
Stream size : 4.25 GiB (85%)
Color primaries : BT.709-5, BT.1361, IEC 61966-2-4, SMPTE RP177
Transfer characteristics : BT.709-5, BT.1361
Matrix coefficients : BT.709-5, BT.1361, IEC 61966-2-4 709, SMPTE RP177

Audio #1
ID : 4352 (0x1100)
Menu ID : 1 (0x1)
Format : AC-3
Format/Info : Audio Coding 3
Mode extension : CM (complete main)
Format settings, Endianness : Big
Codec ID : 129
Duration : 1h 27mn
Bit rate mode : Constant
Bit rate : 384 Kbps
Channel(s) : 6 channels
Channel positions : Front: L C R, Side: L R, LFE
Sampling rate : 48.0 KHz
Bit depth : 16 bits
Compression mode : Lossy
Stream size : 242 MiB (5%)
Language : Ukrainian

Audio #2
ID : 4353 (0x1101)
Menu ID : 1 (0x1)
Format : AC-3
Format/Info : Audio Coding 3
Mode extension : CM (complete main)
Format settings, Endianness : Big
Codec ID : 129
Duration : 1h 27mn
Bit rate mode : Constant
Bit rate : 384 Kbps
Channel(s) : 6 channels
Channel positions : Front: L C R, Side: L R, LFE
Sampling rate : 48.0 KHz
Bit depth : 16 bits
Compression mode : Lossy
Delay relative to video : 40ms
Stream size : 242 MiB (5%)
Language : English
Тривалість: 01:27:57
Якість: 1080i
Відео:
кодек:
розмір кадру: 1920 х 1080
бітрейт: ~ 6924 кб/с
частота кадрів: 25 к/с (fps)

Аудіо #1:
мова: українська
переклад: двоголосий закадровий
кодек: 5.1
бітрейт: 384 кб/с
запис звуку з каналу:

Аудіо #2:
мова: англійська
переклад: оригінал
кодек: 5.1
бітрейт: 384 кб/с

Скріншоти:





Трейлери:

Семпл
Джерело 1_________Джерело 2_________Джерело 3_________Джерело 4
У випадку, якщо з усіх джерел семпл видалять, прохання повідомити мені у ПРИВАТ


Подяка:

1. Пані SweetN за запис звуку з ТБ.


Реліз створено: &

Особиста оцінка: Ще не дивився.

Також дивіться:
Том Сойєр / Tom Sawyer (2011)


Реліз не зберігатиму, видалю, щойно буде потрібне вільне місце.


Срібний реліз (на рейтинг впливає 50% завантаженого)
 Трекер:    Зареєстрований   

Завантажити / скачати фільм українською



відео для новачків



 Зареєстрований:   2012-07-10 20:20
 Розмір:   4.98 GB 
 Оцінка фільму:   3.3/10 (Голосів: 4)
 Прохання залишати коментарі і не тікати з роздачі.
   
Інші релізи
   Том і Гек / Tom and Huck (1995) Ukr/Eng urij546724  1 / 0   1.45 GB   2012-07-11 19:24 
Ваш часовий пояс: GMT + 2 Години

Нова тема   Відповісти