Завантажити та скачати торренти українською


Зразковий самець / Zoolander (2001) 720p Ukr/Eng | Sub Eng

Нові коментарі

Нова тема   Відповісти
Автор Повідомлення
11FrYkT 
Модератор відео


З нами з: 20.02.11
Востаннє: 11.12.16
Повідомлень: 3141

2012-07-10 15:50  
Зразковий самець / Zoolander (2001) 720p Ukr/Eng | Sub Eng

Зразковий самець / Zoolander (2001) 720p Ukr/Eng | Sub Eng

«3% жиру. 1% мозкової діяльності. »



Жанр: комедія
Країна: США, Австралiя, Німеччина



Кіностудія / кінокомпанія: Paramount Pictures, Village Roadshow Pictures, VH1 Television
Режисер: Бен Стіллер
Актори: Бен Стіллер, Оуен Вілсон, Христина Тейлор, Вілл Фарел, Мілла Йовович та інші.

Сюжет:
Супермодель Дерек Зуландер - секс-символ, мiльйонер та самозакоханий дурник. Вiн тричi ставав "моделлю року" i був упевнений, що завоює цей титул вчетверте, проте поступився молодшому колезi. Пiсля невдалої спроби повернутися до своєї родини Дерек виявляється вплутаним у змову з метою вбити прем'єр-мiнiстра Малайзiї...


Тривалість: 01:29:12
Якість: 720p
Відео:
кодек:
розмір кадру: 1280 x 546
бітрейт: 6121 кб/с

Аудіо # 1:
мова: українська
переклад: багатоголосий закадровий
кодек: 2.0
бітрейт: 192 кб/с

Аудіо # 2:
мова: англійська
переклад: оригінал
кодек: 5.1
бітрейт: 1536 кб/с

Субтитри:
мова: англійська
тип: програмні (м'які)
формат: *.srt
MediaInfo
Код:

Zoolander (2001) 720p.mkv
   General
      UniqueID : 236211981156966581557486836336901442888 (0xB1B4C5D478F7D903ABF64A7748774D48)
      Complete name : Zoolander (2001) 720p.mkv
      Format : Matroska
      File size : 4.97 GiB
      Duration : 1h 29mn
      Overall bit rate : 7 981 Kbps
      Encoded date : UTC 2012-07-10 13:26:18
      Writing application : mkvmerge v4.9.1 ('Ich will') зібрано Jul 11 2011 23:53:15
      Writing library : libebml v1.2.1 + libmatroska v1.1.1
   Video #1
      ID : 1
      Format : AVC
      Format/Info : Advanced Video Codec
      Format profile : [email protected]
      Format settings, CABAC : Yes
      Format settings, ReFrames : 11 frames
      Codec ID : V_MPEG4/ISO/AVC
      Duration : 1h 29mn
      Bit rate : 6 121 Kbps
      Width : 1 280 pixels
      Height : 546 pixels
      Display aspect ratio : 2.35:1
      Frame rate : 23.976 fps
      Color space : YUV
      Chroma subsampling : 4:2:0
      Bit depth : 8 bits
      Scan type : Progressive
      Bits/(Pixel*Frame) : 0.365
      Stream size : 3.81 GiB (77%)
      Writing library : core 125 r2200 999b753
      Encoding settings : cabac=1 / ref=11 / deblock=1:-3:-3 / analyse=0x3:0x113 / me=esa / subme=11 / psy=1 / psy_rd=1.05:0.00 / mixed_ref=1 / me_range=16 / chroma_me=1 / trellis=2 / 8x8dct=1 / cqm=0 / deadzone=21,11 / fast_pskip=0 / chroma_qp_offset=-2 / threads=12 / lookahead_threads=2 / sliced_threads=0 / nr=0 / decimate=0 / interlaced=0 / bluray_compat=0 / constrained_intra=0 / bframes=8 / b_pyramid=2 / b_adapt=2 / b_bias=0 / direct=3 / weightb=1 / open_gop=0 / weightp=2 / keyint=250 / keyint_min=23 / scenecut=40 / intra_refresh=0 / rc=crf / mbtree=0 / crf=16.5 / qcomp=0.60 / qpmin=0 / qpmax=69 / qpstep=4 / ip_ratio=1.40 / pb_ratio=1.30 / aq=1:0.72
      Language : English
   Audio #2
      ID : 2
      Format : AC-3
      Format/Info : Audio Coding 3
      Mode extension : CM (complete main)
      Codec ID : A_AC3
      Duration : 1h 29mn
      Bit rate mode : Constant
      Bit rate : 192 Kbps
      Channel(s) : 2 channels
      Channel positions : Front: L R
      Sampling rate : 48.0 KHz
      Bit depth : 16 bits
      Compression mode : Lossy
      Stream size : 123 MiB (2%)
      Title : 2.0 @ 192 kbps -Багатоголосий закадровий
      Language : Ukrainian
   Audio #3
      ID : 3
      Format :
      Format/Info : Digital Theater Systems
      Codec ID : A_DTS
      Duration : 1h 29mn
      Bit rate mode : Constant
      Bit rate : 1 510 Kbps
      Channel(s) : 6 channels
      Channel positions : Front: L C R, Side: L R, LFE
      Sampling rate : 48.0 KHz
      Bit depth : 24 bits
      Compression mode : Lossy
      Stream size : 963 MiB (19%)
      Title : 5.1 @ 1536 kbps
      Language : English
   Text #4
      ID : 4
      Format : UTF-8
      Codec ID : S_TEXT/UTF8
      Codec ID/Info : UTF-8 Plain Text
      Language : English
Світлини






Джерело:
Особиста оцінка: 8 - мені сподобалося


Срібний реліз (на рейтинг впливає 50% завантаженого)
 Трекер:    Зареєстрований   

Завантажити / скачати фільм українською



відео для новачків



 Зареєстрований:   2012-07-10 15:50
 Розмір:   4.97 GB 
 Оцінка фільму:   8.9/10 (Голосів: 18)
   
Інші релізи
   Зразковий самець / Zoolander (2001) Ukr/Eng 11FrYkT  3 / 0   1.66 GB   2012-07-11 08:43 
WolfGhoST 
Частий відвідувач


З нами з: 29.12.11
Востаннє: 17.10.13
Повідомлень: 31

2012-07-10 16:36  
з якого каналу українська доріжка?
11FrYkT 
Модератор відео


З нами з: 20.02.11
Востаннє: 11.12.16
Повідомлень: 3141

2012-07-10 16:53  
WolfGhoST ,
я на всі 100 не впевнений, але з нового

WolfGhoST 
Частий відвідувач


З нами з: 29.12.11
Востаннє: 17.10.13
Повідомлень: 31

2012-07-10 17:25  
11FrYkT
спасибі за відповідь.
А можна окремо доріжку? Буду дуже вдячний.

11FrYkT 
Модератор відео


З нами з: 20.02.11
Востаннє: 11.12.16
Повідомлень: 3141

2012-07-10 17:57  
WolfGhoST ,
будь ласка, кину в ПП

Bushido 
VIP


З нами з: 27.12.10
Востаннє: 20.05.16
Повідомлень: 278

2012-07-10 19:47  
А менший чи mini планується?
11FrYkT 
Модератор відео


З нами з: 20.02.11
Востаннє: 11.12.16
Повідомлень: 3141

2012-07-10 20:06  
Bushido ,
можливо хтось зробить, як на мене розмір нормальний

Bushido 
VIP


З нами з: 27.12.10
Востаннє: 20.05.16
Повідомлень: 278

2012-07-10 22:05  
11FrYkT , та розмір хороший. Просто, на скільки помітив, найбільше завантажують фільми розміром близько 2 GB.
11FrYkT 
Модератор відео


З нами з: 20.02.11
Востаннє: 11.12.16
Повідомлень: 3141

2012-07-10 22:52  
Bushido , згідний адже не у всіх дозволяє швтдкість і тд.
Ваш часовий пояс: GMT + 2 Години

Нова тема   Відповісти