Завантажити та скачати торренти українською


Прокляття: Трилогія / The Grudge: Trilogy (2004/2006/2009) 1080p/AVC Ukr/Eng | Sub Eng

Нові коментарі

Нова тема   Відповісти
Автор Повідомлення
ratbol 
Модератор HD


З нами з: 03.02.09
Востаннє: 01.12.16
Повідомлень: 1088

2012-07-09 15:37  
Прокляття: Трилогія / The Grudge: Trilogy (2004/2006/2009) 1080p/AVC Ukr/Eng | Sub Eng


« It never forgives. It never forgets. »

Жанр: жахи
Країна: США, Японія

Кіностудія / кінокомпанія: Ghost House Pictures, Columbia Pictures (1-2)
Режисер: Такаші Шіміцу (1-2), Режисер: Тобі Уілкінс (3)
Актори: Сара Мішель Геллар (1-2), Джейсон Бер (1), Кліа Дюваль (1), Ембер Темблін (2), Аріель Кеббел (2), Меттью Найт (3), Шоуні Сміт (3), Майк Страуб (3)


Прокляття / The Grudge (2004) 1080р 2xUkr/Eng | Sub Eng
Прокляття / The Grudge (2004) 1080р 2xUkr/Eng | Sub Eng



« Even if you die, you can never escape. »

Жанр: жахи
Країна: США, Японія



Кіностудія / кінокомпанія: Columbia Pictures
Режисер: Такаші Шіміцу
Актори: Сара Мішель Геллар (1-2), Джейсон Бер, Вільям Мейпотер, Кліа Дюваль, Кеді Стрикленд, Грейз Забрізкі, Біл Пулман та інші

Сюжет:
Прокляття померлих живуть у місцях, де вони жили, чекаючи нову жертву. Коли прокляття знаходить нову жертву - вона помирає, а прокляття стає від цього ще сильнішим. І так вбиваючи жертву за жертвою,прокляття набирає силу...


Тривалість: 01:31:22
Якість:
Відео:
кодек:
розмір кадру: 1920 х 1080
бітрейт: 15188 кб/с

Аудіо # 1:
мова: українська
переклад: двоголосий закадровий, ТЕТ
кодек: 2.0
бітрейт: 192 кб/с

Аудіо # 2:
мова: українська
переклад: багатоголосий закадровий, ТВі
кодек: 2.0
бітрейт: 192 кб/с

Аудіо # 3:
мова: англійська
переклад: оригінал
кодек: 5.1
бітрейт: 1536 кб/с

Джерело озвучення:
&

Субтитри:
мова: англійська
тип: програмні (м'які)
формат: *.srt

MediaInfo
Код:
General
Unique ID                        : 191271228270092110373531623361256876527 (0x8FE57FA46A00C69A82EB6A337B77E9EF)
Complete name                    : E:\MOVIES\movie releases\Прокляття\The Grudge. Trilogy (2004-2006-2009) 1080p-AVC [Hurtom]\The Grudge (2004) [2xUkr, Eng. Sub - Eng] 1080p [Hurtom].mkv
Format                           : Matroska
Format version                   : Version 2
File size                        : 11.0 GiB
Duration                         : 1h 31mn
Overall bit rate mode            : Variable
Overall bit rate                 : 17.3 Mbps
Movie name                       : The Grudge (2004) [Hurtom]
Encoded date                     : UTC 2012-07-10 10:10:59
Writing application              : mkvmerge v5.6.0 ('Kenya Kane') built on May 27 2012 16:44:04
Writing library                  : libebml v1.2.3 + libmatroska v1.3.0

Video
ID                               : 1
Format                           : AVC
Format/Info                      : Advanced Video Codec
Format profile                   : [email protected]
Format settings, CABAC           : Yes
Format settings, ReFrames        : 4 frames
Codec ID                         : V_MPEG4/ISO/AVC
Duration                         : 1h 31mn
Bit rate                         : 15.2 Mbps
Width                            : 1 920 pixels
Height                           : 1 080 pixels
Display aspect ratio             : 16:9
Frame rate                       : 23.976 fps
Color space                      : YUV
Chroma subsampling               : 4:2:0
Bit depth                        : 8 bits
Scan type                        : Progressive
Bits/(Pixel*Frame)               : 0.305
Stream size                      : 9.57 GiB (87%)
Title                            : реліз-група HDH
Writing library                  : core 125 r2200 999b753
Encoding settings                : cabac=1 / ref=4 / deblock=1:-3:-3 / analyse=0x3:0x133 / me=umh / subme=11 / psy=1 / psy_rd=1.00:0.15 / mixed_ref=1 / me_range=32 / chroma_me=1 / trellis=2 / 8x8dct=1 / cqm=0 / deadzone=21,11 / fast_pskip=0 / chroma_qp_offset=-3 / threads=12 / lookahead_threads=2 / sliced_threads=0 / nr=0 / decimate=1 / interlaced=0 / bluray_compat=0 / constrained_intra=0 / bframes=12 / b_pyramid=2 / b_adapt=2 / b_bias=0 / direct=3 / weightb=1 / open_gop=0 / weightp=2 / keyint=240 / keyint_min=23 / scenecut=40 / intra_refresh=0 / rc_lookahead=60 / rc=2pass / mbtree=1 / bitrate=15188 / ratetol=1.0 / qcomp=0.60 / qpmin=0 / qpmax=69 / qpstep=4 / cplxblur=20.0 / qblur=0.5 / ip_ratio=1.40 / aq=1:1.00
Language                         : English
Default                          : Yes
Forced                           : No

Audio #1
ID                               : 2
Format                           : AC-3
Format/Info                      : Audio Coding 3
Mode extension                   : CM (complete main)
Codec ID                         : A_AC3
Duration                         : 1h 31mn
Bit rate mode                    : Constant
Bit rate                         : 192 Kbps
Channel(s)                       : 2 channels
Channel positions                : Front: L R
Sampling rate                    : 48.0 KHz
Bit depth                        : 16 bits
Compression mode                 : Lossy
Stream size                      : 126 MiB (1%)
Title                            : 2.0 [192 Kbps] — двоголосий закадровий, ТЕТ
Language                         : Ukrainian
Default                          : Yes
Forced                           : Yes

Audio #2
ID                               : 3
Format                           : AC-3
Format/Info                      : Audio Coding 3
Mode extension                   : CM (complete main)
Codec ID                         : A_AC3
Duration                         : 1h 31mn
Bit rate mode                    : Constant
Bit rate                         : 192 Kbps
Channel(s)                       : 2 channels
Channel positions                : Front: L R
Sampling rate                    : 48.0 KHz
Bit depth                        : 16 bits
Compression mode                 : Lossy
Stream size                      : 126 MiB (1%)
Title                            : 2.0 [192 Kbps] — багатоголосий закадровий, ТВі
Language                         : Ukrainian
Default                          : No
Forced                           : No

Audio #3
ID                               : 4
Format                           :
Format/Info                      : Digital Theater Systems
Format profile                   : MA / Core
Codec ID                         : A_DTS
Duration                         : 1h 31mn
Bit rate mode                    : Variable
Bit rate                         : 1 561 Kbps / 1 510 Kbps
Channel(s)                       : 6 channels
Channel positions                : Front: L C R, Side: L R, LFE
Sampling rate                    : 48.0 KHz
Bit depth                        : 16 bits
Compression mode                 : Lossless / Lossy
Title                            : 5.1 [1536 Kbps] — оригінал
Language                         : English
Default                          : No
Forced                           : No

Text
ID                               : 5
Format                           : UTF-8
Codec ID                         : S_TEXT/UTF8
Codec ID/Info                    : UTF-8 Plain Text
Language                         : English
Default                          : No
Forced                           : No
log
Код:
---[NoImage] [info]: using SAR=1/1
---[NoImage] [info]: using cpu capabilities: MMX2 SSE2Fast SSSE3 FastShuffle SSE4.2 AVX
---[NoImage] [info]: profile High, level 4.1
---[NoImage]
---[NoImage] [info]: frame I:713   Avg QP:17.50  size:182739
---[NoImage] [info]: frame P:22153 Avg QP:19.80  size:106971
---[NoImage] [info]: frame B:108583 Avg QP:21.34  size: 72814
---[NoImage] [info]: consecutive B-frames:  1.1%  0.9%  2.8%  3.7%  3.7% 67.9%  3.0%  1.2%  2.5%  0.7%  1.6%  9.1%  1.8%
---[NoImage] [info]: mb I  I16..4:  6.1% 89.8%  4.1%
---[NoImage] [info]: mb P  I16..4:  1.1% 44.0%  0.9%  P16..4: 20.0% 22.8%  4.6%  1.0%  0.1%    skip: 5.6%
---[NoImage] [info]: mb B  I16..4:  0.3% 14.8%  0.1%  B16..8: 34.1% 21.9%  3.4%  direct:13.3%  skip:12.1%  L0:43.6% L1:36.9% BI:19.5%
---[NoImage] [info]: 8x8 transform intra:96.6% inter:57.4%
---[NoImage] [info]: direct mvs  spatial:97.3% temporal:2.7%
---[NoImage] [info]: coded y,uvDC,uvAC intra: 95.4% 71.2% 24.8% inter: 57.1% 42.8% 1.8%
---[NoImage] [info]: i16 v,h,dc,p: 41% 22% 15% 22%
---[NoImage] [info]: i8 v,h,dc,ddl,ddr,vr,hd,vl,hu: 10%  8% 20%  9% 10% 10%  9% 11% 13%
---[NoImage] [info]: i4 v,h,dc,ddl,ddr,vr,hd,vl,hu: 16% 10%  7%  8% 13% 14% 12% 10% 10%
---[NoImage] [info]: i8c dc,h,v,p: 21% 43% 26% 10%
---[NoImage] [info]: Weighted P-Frames: Y:4.7% UV:1.7%
---[NoImage] [info]: ref P L0: 53.4%  6.1% 27.1% 12.7%  0.7%  0.0%
---[NoImage] [info]: ref B L0: 82.1% 15.4%  2.5%
---[NoImage] [info]: ref B L1: 87.6% 12.4%
---[NoImage] [info]: kb/s:15184.87
Скріншоти

Source vs Encode





Прокляття 2 / The Grudge 2 (2006) AVC 2xUkr/Eng | Sub Ukr/Eng
Прокляття 2 / The Grudge 2 (2006) AVC 2xUkr/Eng | Sub Ukr/Eng



« What Began With One....Will End With Many. »


Жанр: жахи
Країна: США, Японія



Кіностудія / кінокомпанія: Columbia Pictures Corporation, Ghost House Pictures, Mandate Pictures, Vertigo Entertainment
Режисер: Такаші Шіміцу
Актори: Сара Мішель Геллар (1-2), Ембер Темблін, Аріель Кеббел, Такако Фуджі, Едісон Чен, Сара Ромер, Метю Найт та інші.

Сюжет:
Таємниче і нещадне прокляття досягає нову жертву - сестру дівчини, якій вдалось врятуватися від привиду закинутого будинку. Тепер багато людей загине страшною смертю, питання тільки в тому чи є сила, яка здатна буде зупинити це прокляття...


Тривалість: 01:37:57
Якість: AVC
Відео:
кодек:
розмір кадру: 1039 x 544
бітрейт: 1662 кб/с

Аудіо # 1:
мова: українська
переклад: двоголосий закадровий, ТЕТ
кодек: 2.0
бітрейт: 192 кб/с

Аудіо # 2:
мова: українська
переклад: багатоголосий закадровий, ТВі
кодек: 2.0
бітрейт: 192 кб/с

Аудіо # 3:
мова: англійська
переклад: оригінал
кодек: 5.1
бітрейт: 256 кб/с

Джерело озвучення:
&

Субтитри # 1:
мова: українська
тип: програмні (м'які)
формат: *.srt

Субтитри # 2:
мова: англійська
тип: програмні (м'які)
формат: *.srt

MediaInfo
Код:
General
Unique ID                        : 248055644493624475667001558347963435553 (0xBA9DC7842AB05C35A3449DFA95380A21)
Complete name                    : E:\MOVIES\movie releases\Прокляття\The Grudge 2\VID\The Grudge 2 (2006) [2xUkr, Eng. Sub - Ukr, Eng] AVC [Hurtom].mkv
Format                           : Matroska
Format version                   : Version 2
File size                        : 1.56 GiB
Duration                         : 1h 37mn
Overall bit rate                 : 2 276 Kbps
Movie name                       : The Grudge 2 (2006) [Hurtom]
Encoded date                     : UTC 2012-07-09 11:49:09
Writing application              : mkvmerge v5.6.0 ('Kenya Kane') built on May 27 2012 16:44:04
Writing library                  : libebml v1.2.3 + libmatroska v1.3.0

Video
ID                               : 1
Format                           : AVC
Format/Info                      : Advanced Video Codec
Format profile                   : [email protected]
Format settings, CABAC           : Yes
Format settings, ReFrames        : 12 frames
Codec ID                         : V_MPEG4/ISO/AVC
Duration                         : 1h 37mn
Nominal bit rate                 : 1 662 Kbps
Width                            : 720 pixels
Height                           : 544 pixels
Display aspect ratio             : 1.910
Frame rate                       : 25.000 fps
Color space                      : YUV
Chroma subsampling               : 4:2:0
Bit depth                        : 8 bits
Scan type                        : Progressive
Bits/(Pixel*Frame)               : 0.170
Title                            : AVC
Writing library                  : core 68 r1183M f21daff
Encoding settings                : cabac=1 / ref=12 / deblock=1:-1:-1 / analyse=0x3:0x133 / me=umh / subme=9 / psy_rd=1.0:0.0 / mixed_ref=1 / me_range=16 / chroma_me=1 / trellis=2 / 8x8dct=1 / cqm=0 / deadzone=21,11 / chroma_qp_offset=-2 / threads=6 / nr=0 / decimate=0 / mbaff=0 / bframes=9 / b_pyramid=1 / b_adapt=2 / b_bias=0 / direct=1 / wpredb=1 / keyint=250 / keyint_min=25 / scenecut=40 / rc=2pass / bitrate=1662 / ratetol=1.0 / qcomp=0.60 / qpmin=10 / qpmax=51 / qpstep=4 / cplxblur=20.0 / qblur=0.5 / ip_ratio=1.40 / pb_ratio=1.30 / aq=1:1.00
Language                         : English
Default                          : Yes
Forced                           : No

Audio #1
ID                               : 2
Format                           : AC-3
Format/Info                      : Audio Coding 3
Mode extension                   : CM (complete main)
Codec ID                         : A_AC3
Duration                         : 1h 37mn
Bit rate mode                    : Constant
Bit rate                         : 192 Kbps
Channel(s)                       : 2 channels
Channel positions                : Front: L R
Sampling rate                    : 48.0 KHz
Bit depth                        : 16 bits
Compression mode                 : Lossy
Stream size                      : 135 MiB (8%)
Title                            : 2.0 [192 Kbps] — двоголосий закадровий, ТЕТ
Language                         : Ukrainian
Default                          : Yes
Forced                           : Yes

Audio #2
ID                               : 3
Format                           : AC-3
Format/Info                      : Audio Coding 3
Mode extension                   : CM (complete main)
Codec ID                         : A_AC3
Duration                         : 1h 37mn
Bit rate mode                    : Constant
Bit rate                         : 192 Kbps
Channel(s)                       : 2 channels
Channel positions                : Front: L R
Sampling rate                    : 48.0 KHz
Bit depth                        : 16 bits
Compression mode                 : Lossy
Stream size                      : 135 MiB (8%)
Title                            : 2.0 [192 Kbps] — багатоголосий закадровий, ТВі
Language                         : Ukrainian
Default                          : No
Forced                           : No

Audio #3
ID                               : 4
Format                           :
Format/Info                      : Advanced Audio Codec
Format profile                   : LC
Codec ID                         : A_AAC
Duration                         : 1h 37mn
Channel(s)                       : 6 channels
Channel positions                : Front: L C R, Side: L R, LFE
Sampling rate                    : 48.0 KHz
Compression mode                 : Lossy
Title                            : 5.1 [256 Kbps] — оригінал
Language                         : English
Default                          : No
Forced                           : No

Text #1
ID                               : 5
Format                           : UTF-8
Codec ID                         : S_TEXT/UTF8
Codec ID/Info                    : UTF-8 Plain Text
Language                         : Ukrainian
Default                          : No
Forced                           : No

Text #2
ID                               : 6
Format                           : UTF-8
Codec ID                         : S_TEXT/UTF8
Codec ID/Info                    : UTF-8 Plain Text
Language                         : English
Default                          : No
Forced                           : No
Прокляття 3 / The Grudge 3 (2009) 1080р Ukr/Eng | Sub Eng
Прокляття 3 / The Grudge 3 (2009) 1080р Ukr/Eng | Sub Eng



« You can't escape the curse. »


Жанр: жахи
Країна: США, Японія



Кіностудія / кінокомпанія: Stage 6 Films, Ghost House Pictures, Ozla Pictures, Sony Pictures Entertainment (SPE), Unified Film Organization (UFO), Vertigo Entertainment.
Режисер: Тобі Уілкінс
Актори: Меттью Найт, Шоуні Сміт, Майк Страуб, Айко Хоріучі, Шімба Тсучія, Емі Ікехата, Такатцуна Мукай та інші.

Сюжет:
Після того, як у злощасному будинку загинула сім'я Джейка, хлопець божеволіє. Його відправляють до психіатричної лікарні, але прокляття знаходить його навіть там. Лише одна людина – молода японка, яка недавно прибула до Чикаго, знає, як зупинити навіжений дух Каяко.


Тривалість: 01:30:15
Якість:
Відео:
кодек:
розмір кадру: 1920 х 1040
бітрейт: 8 588 кб/с

Аудіо # 1:
мова: українська
переклад: двоголосий закадровий, ТЕТ
кодек: 2.0
бітрейт: 192 кб/с

Аудіо # 2:
мова: англійська
переклад: оригінал
кодек: 5.1
бітрейт: 1536 кб/с

Джерело озвучення:


Субтитри # 1:
мова: німецька (на японську мову)
тип: вбудовані (жорсткі)

Субтитри # 2:
мова: англійська
тип: програмні (м'які)
формат: *.srt

MediaInfo
Код:
General
Unique ID                        : 185163010271914605509089965350053392061 (0x8B4D193E5844E0FBA20E2CCC37FAAEBD)
Complete name                    : E:\MOVIES\movie releases\Прокляття\The Grudge 3\VID\The Grudge 3 (2009) [Ukr, Eng. Sub - Eng] 1080p [Hurtom].mkv
Format                           : Matroska
Format version                   : Version 2
File size                        : 6.49 GiB
Duration                         : 1h 30mn
Overall bit rate                 : 10.3 Mbps
Movie name                       : The Grudge 3 (2009) [Hurtom]
Encoded date                     : UTC 2012-07-09 09:22:17
Writing application              : mkvmerge v5.6.0 ('Kenya Kane') built on May 27 2012 16:44:04
Writing library                  : libebml v1.2.3 + libmatroska v1.3.0

Video
ID                               : 1
Format                           : AVC
Format/Info                      : Advanced Video Codec
Format profile                   : [email protected]
Format settings, CABAC           : Yes
Format settings, ReFrames        : 4 frames
Codec ID                         : V_MPEG4/ISO/AVC
Duration                         : 1h 30mn
Bit rate                         : 8 588 Kbps
Width                            : 1 920 pixels
Height                           : 1 040 pixels
Display aspect ratio             : 16:9
Frame rate                       : 23.976 fps
Color space                      : YUV
Chroma subsampling               : 4:2:0
Bit depth                        : 8 bits
Scan type                        : Progressive
Bits/(Pixel*Frame)               : 0.179
Stream size                      : 5.29 GiB (81%)
Title                            : Реліз-група HDH
Writing library                  : core 125 r2200 999b753
Encoding settings                : cabac=1 / ref=4 / deblock=1:-3:-3 / analyse=0x3:0x133 / me=umh / subme=11 / psy=1 / psy_rd=1.00:0.15 / mixed_ref=1 / me_range=32 / chroma_me=1 / trellis=2 / 8x8dct=1 / cqm=0 / deadzone=21,11 / fast_pskip=0 / chroma_qp_offset=-3 / threads=12 / lookahead_threads=2 / sliced_threads=0 / nr=0 / decimate=1 / interlaced=0 / bluray_compat=0 / constrained_intra=0 / bframes=10 / b_pyramid=2 / b_adapt=2 / b_bias=0 / direct=3 / weightb=1 / open_gop=0 / weightp=2 / keyint=240 / keyint_min=23 / scenecut=40 / intra_refresh=0 / rc_lookahead=60 / rc=2pass / mbtree=1 / bitrate=8588 / ratetol=1.0 / qcomp=0.60 / qpmin=0 / qpmax=69 / qpstep=4 / cplxblur=20.0 / qblur=0.5 / ip_ratio=1.40 / aq=1:1.00
Language                         : English
Default                          : Yes
Forced                           : No

Audio #1
ID                               : 2
Format                           : AC-3
Format/Info                      : Audio Coding 3
Mode extension                   : CM (complete main)
Codec ID                         : A_AC3
Duration                         : 1h 30mn
Bit rate mode                    : Constant
Bit rate                         : 192 Kbps
Channel(s)                       : 2 channels
Channel positions                : Front: L R
Sampling rate                    : 48.0 KHz
Bit depth                        : 16 bits
Compression mode                 : Lossy
Stream size                      : 124 MiB (2%)
Title                            : 2.0 [192 Kbps] — двоголосий закадровий, ТЕТ
Language                         : Ukrainian
Default                          : Yes
Forced                           : Yes

Audio #2
ID                               : 3
Format                           :
Format/Info                      : Digital Theater Systems
Codec ID                         : A_DTS
Duration                         : 1h 30mn
Bit rate mode                    : Constant
Bit rate                         : 1 510 Kbps
Channel(s)                       : 6 channels
Channel positions                : Front: L C R, Side: L R, LFE
Sampling rate                    : 48.0 KHz
Bit depth                        : 16 bits
Compression mode                 : Lossy
Stream size                      : 975 MiB (15%)
Title                            : 5.1 [1536 Kbps] — оригінал
Language                         : English
Default                          : No
Forced                           : No

Text
ID                               : 4
Format                           : UTF-8
Codec ID                         : S_TEXT/UTF8
Codec ID/Info                    : UTF-8 Plain Text
Language                         : English
Default                          : No
Forced                           : No
log
Код:
-[NoImage] [info]: using SAR=1/1
-[NoImage] [info]: using cpu capabilities: MMX2 SSE2Fast SSSE3 FastShuffle SSE4.2 AVX
-[NoImage] [info]: profile High, level 4.1
-[NoImage]
-[NoImage] [info]: frame I:739   Avg QP:16.33  size:182391
-[NoImage] [info]: frame P:25272 Avg QP:18.88  size: 77046
-[NoImage] [info]: frame B:103833 Avg QP:20.48  size: 35941
-[NoImage] [info]: consecutive B-frames:  1.1%  2.2%  4.9%  8.8% 11.6% 65.4%  4.5%  0.2%  0.2%  0.2%  0.9%
-[NoImage] [info]: mb I  I16..4: 11.0% 77.6% 11.4%
-[NoImage] [info]: mb P  I16..4:  1.7% 14.4%  0.8%  P16..4: 31.5% 36.5%  6.4%  1.2%  0.1%    skip: 7.3%
-[NoImage] [info]: mb B  I16..4:  0.2%  1.5%  0.1%  B16..8: 45.0% 19.8%  2.0%  direct: 5.8%  skip:25.6%  L0:46.1% L1:43.9% BI: 9.9%
-[NoImage] [info]: 8x8 transform intra:84.2% inter:51.7%
-[NoImage] [info]: direct mvs  spatial:99.0% temporal:1.0%
-[NoImage] [info]: coded y,uvDC,uvAC intra: 88.5% 73.4% 37.2% inter: 32.1% 26.8% 1.5%
-[NoImage] [info]: i16 v,h,dc,p: 45% 11% 10% 34%
-[NoImage] [info]: i8 v,h,dc,ddl,ddr,vr,hd,vl,hu:  8%  5%  9% 11% 15% 15% 12% 13% 12%
-[NoImage] [info]: i4 v,h,dc,ddl,ddr,vr,hd,vl,hu: 11%  7% 12%  8% 14% 14% 11% 11% 11%
-[NoImage] [info]: i8c dc,h,v,p: 40% 23% 20% 16%
-[NoImage] [info]: Weighted P-Frames: Y:2.1% UV:1.2%
-[NoImage] [info]: ref P L0: 56.3%  5.6% 24.9% 12.5%  0.7%  0.0%
-[NoImage] [info]: ref B L0: 86.6% 10.2%  3.2%
-[NoImage] [info]: ref B L1: 95.3%  4.7%
-[NoImage] [info]: kb/s:8588.25
Скріншоти

Source vs Encode









Робота над релізом:
xslim, simkanetua, yuraflash, dvorsky, zevsisver, olgaya — запис звуку з ТБ;
karvai0 — синхронізація усіх українських доріжок;
ermolenko, himera33a — українізація постерів;
ratbol — ріпи до 1-ої та 3-ої частин.

Цитата:
На даний момент Blu-ray до 2-ої частини ще не вийшов, тож замість друга частина у AVC.
Реліз буде оновлено 'ом як тільки Blu-ray з'явиться в мережі.


Джерело: + власний ріп


Бронзовий реліз (на рейтинг впливає 75% завантаженого)
 Трекер:    Зареєстрований   

Завантажити / скачати фільм українською



відео для новачків



 Зареєстрований:   2012-07-10 17:57
 Розмір:   19.08 GB 
 Оцінка фільму:   6.8/10 (Голосів: 9)
 Не тікаємо з роздачі!
   
bot 
робот


З нами з: 30.09.07
Востаннє: 26.05.05
Повідомлень: 15987

2012-07-10 17:56  
Тему перенесено з Анонси релізів від Відео Гуртом до форуму Фільми в HD


ratbol

Yaroslavovy4 
Свій


З нами з: 25.03.12
Востаннє: 23.11.16
Повідомлень: 96

2012-07-10 21:00  
як фільм??
Virake 
Localize Team
Localize Team


З нами з: 07.07.09
Востаннє: 04.12.16
Повідомлень: 4053

2012-07-10 21:46  
бачив другу частину - фігня фігньою. перша наче краща. зате переклад назви одразу вбиває на повал! і сенс убивається теж.
kaworu 
Свій


З нами з: 06.05.09
Востаннє: 04.12.16
Повідомлень: 52

2012-07-10 22:50  
imdb всюди першої частини
Kitler 
Модератор програмного забезпечення


З нами з: 22.04.11
Востаннє: 04.12.16
Повідомлень: 591

2012-07-19 16:38  
Дивився тільки першу частину. Це десь була година 2-3 (вночі). Не дуже страшно.
Тільки тим, хто дивися першу частину
От якби та дівчина, що сиділа на шиї, виймала в нього по хребцю, а відповідно і ребра забирала, а він зранку просинався і бачив все ліжко у власній крові і ребра на поличці шафи, от тоді було б прикольно Wink (1) Щодня він би ставав нижчим, тиск на його внутрішні органи зростав, він би помирав повільно, в муках.
Подивлюсь ІІ і ІІІ теж напишу враження.

ratbol 
Модератор HD


З нами з: 03.02.09
Востаннє: 01.12.16
Повідомлень: 1088

2012-07-19 17:31  
Kitler
Так, особливого страху та емоцій після фільму не відчуваєш, страшно тільки коли раптово щось закричить під час перегляду.

Kitler 
Модератор програмного забезпечення


З нами з: 22.04.11
Востаннє: 04.12.16
Повідомлень: 591

2012-07-29 17:58  
Тільки тим, хто дивися ІІ і ІІІ частини
Друга частина ще може бути, хоча теж не страшно. Такий звук, який видавала та мертва сестра (а стоп, сестрою вона виявиться лише у третій частині), та мертва дружина, і я можу зробити.
Третя частнина... Перші півгодини можна заснути не побачивши продовження. М'явкати, як той мертвий хлопчик, я теж вмію (або майже так). Найгірша частина. От тільки я не зрозумів, звідки там німецькі субтитри?

ratbol 
Модератор HD


З нами з: 03.02.09
Востаннє: 01.12.16
Повідомлень: 1088

2012-07-29 18:06  
Kitler
Мабуть бд у Німеччині виходив.
Жорсткі вбудовані?

Kitler 
Модератор програмного забезпечення


З нами з: 22.04.11
Востаннє: 04.12.16
Повідомлень: 591

2012-07-29 18:19  
ratbol, так, вбудовані. І, мабуть, таки у Німеччині.
Тиць

ratbol 
Модератор HD


З нами з: 03.02.09
Востаннє: 01.12.16
Повідомлень: 1088

2012-07-29 18:28  
Kitler
Зара вкажу в оформлення, шоб люди знали.

Ваш часовий пояс: GMT + 2 Години

Нова тема   Відповісти