Завантажити та скачати торренти українською


Гнів Титанів / Wrath of the Titans (2012) 1080p

Нові коментарі

Нова тема   Відповісти
Останній раз роздавалося oleh_oleh (2016-12-08)
Автор Повідомлення
oleh_oleh 
Свій


З нами з: 05.05.11
Востаннє: 06.12.16
Повідомлень: 67

2012-07-09 12:52  
Гнів Титанів / Wrath of the Titans (2012) 1080p

Гнів Титанів / Wrath of the Titans (2012) 1080p


Жанр: фантастика, пригодницький, бойовик
Країна: США



Кіностудія / кінокомпанія: Warner Bros. Pictures, Legendary Pictures, Cott Productions
Режисер: Джонатан Лібесман (Jonathan Liebesman)
Актори: Сем Вортінгтон (Sam Worthington), Ліам Нісон (Liam Neeson), Рейф Файнс (Ralph Fiennes), Розамунд Пайк (Rosamund Pike), Білл Найї (Bill Nighy), Денні Х'юстон (Danny Huston), Тобі Кеббелл (Toby Kebbell) та інші.

Сюжет:
Минуло десять років після героїчної перемоги Персея над морським чудовиськом Кракеном. Тепер він живе спокійним життям сільського рибалки і виховує свого 10-річного сина. Тим часом, між Богами і Титанами на чолі з Кроносом, батьком правлячих братів Зевса, Аїда і Посейдона, розгоряється битва за владу.
Персей не може залишатися осторонь, коли Аїд разом з сином Зевса, Аресом, укладають угоду з Кроносом, щоб разом знищити Зевса. Сила Титанів зростає, тоді як Зевс втрачає свою могутність і владу, а по Землі розкидається пекло підземного світу. Разом з принцесою Андромедою, сином Посейдона, напівбогом Агенором, і скинутим богом Гефестом, Персей вирушає у небезпечну і відважну подорож в підземний світ, щоб врятувати Зевса, повалити Титанів і зберегти людський рід.


Тривалість: 01:39:31
Якість:
Відео:
кодек:
розмір кадру: 1920 х 1072
бітрейт: 5833 кб/с

Аудіо:
мова: українська
переклад: професійний дубльований
кодек: 5.1
бітрейт: 448 кб/с

Джерело озвучення:
MediaInfo
Complete name : Гнів Титанів.mkv
Format : Matroska
File size : 4.36 GiB
Duration : 1h 39mn
Overall bit rate : 6 270 Kbps
Encoded date : UTC 2012-07-09 10:44:46
Writing application : mkvmerge v4.2.0 ('No Talking') збірка від Jul 28 2010 18:38:23
Writing library : libebml v1.0.0 + libmatroska v1.0.0

Video
ID : 1
Format : AVC
Format/Info : Advanced Video Codec
Format profile : [email protected]
Format settings, CABAC : Yes
Format settings, ReFrames : 4 frames
Format settings, GOP : M=1, N=60
Codec ID : V_MPEG4/ISO/AVC
Duration : 1h 39mn
Bit rate : 5 833 Kbps
Width : 1 920 pixels
Height : 1 072 pixels
Display aspect ratio : 16:9
Original display aspect ratio : 16:9
Frame rate : 23.976 fps
Color space : YUV
Chroma subsampling : 4:2:0
Bit depth : 8 bits
Scan type : Progressive
Bits/(Pixel*Frame) : 0.118
Stream size : 3.96 GiB (91%)
Title : Гнів Титанів
Writing library : core 120 r2164 da19765
Encoding settings : cabac=1 / ref=4 / deblock=1:0:0 / analyse=0x3:0x133 / me=hex / subme=7 / psy=1 / psy_rd=1.00:0.00 / mixed_ref=1 / me_range=16 / chroma_me=1 / trellis=1 / 8x8dct=1 / cqm=0 / deadzone=21,11 / fast_pskip=0 / chroma_qp_offset=-2 / threads=6 / sliced_threads=0 / nr=0 / decimate=1 / interlaced=0 / bluray_compat=0 / constrained_intra=0 / bframes=3 / b_pyramid=2 / b_adapt=2 / b_bias=0 / direct=1 / weightb=1 / open_gop=0 / weightp=2 / keyint=240 / keyint_min=23 / scenecut=40 / intra_refresh=0 / rc_lookahead=40 / rc=2pass / mbtree=1 / bitrate=5833 / ratetol=2.0 / qcomp=0.60 / qpmin=0 / qpmax=69 / qpstep=4 / cplxblur=20.0 / qblur=0.5 / ip_ratio=1.40 / aq=1:1.00
Language : English

Audio
ID : 2
Format : AC-3
Format/Info : Audio Coding 3
Mode extension : CM (complete main)
Codec ID : A_AC3
Duration : 1h 39mn
Bit rate mode : Constant
Bit rate : 448 Kbps
Channel(s) : 6 channels
Channel positions : Front: L C R, Side: L R, LFE
Sampling rate : 48.0 KHz
Bit depth : 16 bits
Compression mode : Lossy
Stream size : 319 MiB (7%)
Title : Українська
Language : Ukrainian
Скріншоти


[/url]
Особиста оцінка: 10 - без зайвих вагань рекомендую всім!


 Трекер:    Зареєстрований   

Завантажити / скачати фільм українською



відео для новачків



 Зареєстрований:   2012-07-09 23:42
 Розмір:   4.36 GB 
 Оцінка фільму:   8.6/10 (Голосів: 14)
   
Інші релізи
   Гнів Титанів / Wrath of the Titans (2012) 720p-mini Drool  1 / 0   2.83 GB   2012-07-18 17:20 
   Гнів Титанів / Wrath of the Titans (2012) AVC Ukr/Eng AngryBirdsUA  0 / 0   2.18 GB   2012-07-08 23:46 
   Гнів Титанів / Wrath of the Titans (2012) 720p Ukr/Eng | Sub Eng xfsthe  1 / 0   5.18 GB   2012-07-08 13:56 
Givi 
Модератор відео


З нами з: 25.02.08
Востаннє: 07.12.16
Повідомлень: 2862

2012-07-09 20:45  
oleh_oleh написано:
Гнів Титанів.mkv

Цитата:
10. Обов"язкові вимоги до підпису(назви) файлу:
1) назва фільму(файлу) виключно латиницею і тільки англійська версія;
2) назва файлу та торент-файлу повинна бути ідентичною;
3) має містити такий мінімум Назва рік якість тип


Знімаю реєстрацію до перейменування файлу згідно вимог правил оформлення HD-релізу.

goser 
Частий відвідувач


З нами з: 19.12.07
Востаннє: 28.11.16
Повідомлень: 41

2016-08-26 21:36  
Завантажило більше 200 чоловік а повідомлень 0.
Ваш часовий пояс: GMT + 2 Години

Нова тема   Відповісти