Завантажити та скачати торренти українською


Гнів Титанів / Wrath of the Titans (2012) 720p Ukr/Eng | Sub Eng

Нові коментарі

Нова тема   Відповісти
Автор Повідомлення
xfsthe 
Оцифрування книг Гуртом
Оцифрування книг Гуртом


З нами з: 13.02.11
Востаннє: 07.12.16
Повідомлень: 279

2012-07-08 12:57  
Гнів Титанів / Wrath of the Titans (2012) 720p Ukr/Eng | Sub Eng



Країна: США
Жанр: бойовик, фантастика, пригодницький



Кіностудія / кінокомпанія: Warner Bros. Pictures, Legendary Pictures, Cott Productions
Режисер: Джонатан Лібесман (Jonathan Liebesman)
Актори: Сем Вортінгтон (Sam Worthington), Ліам Нісон (Liam Neeson), Рейф Файнс (Ralph Fiennes), Розамунд Пайк (Rosamund Pike), Білл Найї (Bill Nighy), Денні Х'юстон (Danny Huston), Тобі Кеббелл (Toby Kebbell) та інші.

Сюжет:
Минуло десять років після героїчної перемоги Персея над морським чудовиськом Кракеном. Тепер він живе спокійним життям сільського рибалки і виховує свого 10-річного сина. Тим часом, між Богами і Титанами на чолі з Кроносом, батьком правлячих братів Зевса, Аїда і Посейдона, розгоряється битва за владу.
Персей не може залишатися осторонь, коли Аїд разом з сином Зевса, Аресом, укладають угоду з Кроносом, щоб разом знищити Зевса. Сила Титанів зростає, тоді як Зевс втрачає свою могутність і владу, а по Землі розкидається пекло підземного світу. Разом з принцесою Андромедою, сином Посейдона, напівбогом Агенором, і скинутим богом Гефестом, Персей вирушає у небезпечну і відважну подорож в підземний світ, щоб врятувати Зевса, повалити Титанів і зберегти людський рід.


Тривалість: 01:39:31
Якість: 720p
Відео:
кодек: H264
розмір кадру: 1280 x 720
бітрейт: 5500 кб/с

Аудіо #1:
мова: українська
переклад: професійний дубльований
кодек: 5.1
бітрейт: 448 кб/с

Інформація про дубляж
Переклад: Олега Колеснікова
Режисер дубляжу: Анна Пащенко
Звукорежисер: Олександр Мостовенко
Ролі дублювали: Михайло Тишин, Олександр Ігнатуша, Юрій Гребельник, Юлія Перенчук, Андрій Федінчик, Денис Капустін, Андрій Твердак, Анатолій Пашнін, Сергій Озіряний та інші.

Фільм дубльований компанією PostModern у 2012 році.



Аудіо #2:
мова: англійська
переклад: оригінал
кодек: 5.1
бітрейт: 1510 кб/с

Субтитри #1:
мова: англійська
тип: програмні (м'які)
формат: *.srt
MediaInfo

General
Unique ID : 116396721923398846240320093798497923638 (0x57913176BD717BB5B088AC6ECAC63236)
Complete name : /media/media/Wrath of the Titans (2012) [ukr,eng] sub[eng] 720p.mkv
Format : Matroska
Format version : Version 2
File size : 5.18 GiB
Duration : 1h 39mn
Overall bit rate : 7 453 Kbps
Movie name : Гнів Титанів / Wrath of the Titans (2012) 720p
Encoded date : UTC 2012-07-08 11:21:10
Writing application : mkvmerge v5.1.0 ('And so it goes') built on Feb 1 2012 11:31:23
Writing library : libebml v1.2.2 + libmatroska v1.3.0

Video
ID : 1
Format : AVC
Format/Info : Advanced Video Codec
Format profile : [email protected]
Format settings, CABAC : Yes
Format settings, ReFrames : 9 frames
Codec ID : V_MPEG4/ISO/AVC
Duration : 1h 39mn
Bit rate : 5 500 Kbps
Width : 1 280 pixels
Height : 720 pixels
Display aspect ratio : 16:9
Frame rate : 23.976 fps
Color space : YUV
Chroma subsampling : 4:2:0
Bit depth : 8 bits
Scan type : Progressive
Bits/(Pixel*Frame) : 0.249
Stream size : 3.72 GiB (72%)
Title : Гнів Титанів / Wrath of the Titans (2012) 720p
Writing library : core 125 r2200 999b753
Encoding settings : cabac=1 / ref=9 / deblock=1:-3:-3 / analyse=0x3:0x113 / me=umh / subme=10 / psy=1 / psy_rd=1.10:0.00 / mixed_ref=1 / me_range=32 / chroma_me=1 / trellis=2 / 8x8dct=1 / cqm=0 / deadzone=21,11 / fast_pskip=0 / chroma_qp_offset=-2 / threads=18 / lookahead_threads=3 / sliced_threads=0 / nr=0 / decimate=0 / interlaced=0 / bluray_compat=0 / constrained_intra=0 / bframes=8 / b_pyramid=2 / b_adapt=2 / b_bias=0 / direct=3 / weightb=1 / open_gop=0 / weightp=2 / keyint=240 / keyint_min=24 / scenecut=40 / intra_refresh=0 / rc_lookahead=120 / rc=2pass / mbtree=1 / bitrate=5500 / ratetol=1.0 / qcomp=0.70 / qpmin=0 / qpmax=69 / qpstep=4 / cplxblur=20.0 / qblur=0.5 / ip_ratio=1.40 / aq=1:0.80
Language : English
Default : Yes
Forced : Yes

Audio #1
ID : 2
Format : AC-3
Format/Info : Audio Coding 3
Mode extension : CM (complete main)
Format settings, Endianness : Big
Codec ID : A_AC3
Duration : 1h 39mn
Bit rate mode : Constant
Bit rate : 448 Kbps
Channel(s) : 6 channels
Channel positions : Front: L C R, Side: L R, LFE
Sampling rate : 48.0 KHz
Bit depth : 16 bits
Compression mode : Lossy
Stream size : 319 MiB (6%)
Title : 5.1 @ 448 kbps
Language : Ukrainian
Default : Yes
Forced : Yes

Audio #2
ID : 3
Format :
Format/Info : Digital Theater Systems
Codec ID : A_DTS
Duration : 1h 39mn
Bit rate mode : Constant
Bit rate : 1 510 Kbps
Channel(s) : 6 channels
Channel positions : Front: L C R, Side: L R, LFE
Sampling rate : 48.0 KHz
Bit depth : 24 bits
Compression mode : Lossy
Stream size : 1.05 GiB (20%)
Title : 5.1 @ 1510 kbps
Language : English
Default : No
Forced : No

Text
ID : 4
Format : UTF-8
Codec ID : S_TEXT/UTF8
Codec ID/Info : UTF-8 Plain Text
Language : English
Default : No
Forced : No
Світлини






Джерело: &&
Особиста оцінка: 10 - без зайвих вагань рекомендую всім!


 Трекер:    Зареєстрований   

Завантажити / скачати фільм українською



відео для новачків



 Зареєстрований:   2012-07-08 13:56
 Розмір:   5.18 GB 
 Оцінка фільму:   9.2/10 (Голосів: 15)
   
Інші релізи
   Гнів Титанів / Wrath of the Titans (2012) 720p-mini Drool  1 / 0   2.83 GB   2012-07-18 17:20 
   Гнів Титанів / Wrath of the Titans (2012) 1080p oleh_oleh  0 / 0   4.36 GB   2012-07-09 23:42 
   Гнів Титанів / Wrath of the Titans (2012) AVC Ukr/Eng AngryBirdsUA  2 / 0   2.18 GB   2012-07-08 23:46 
xfsthe 
Оцифрування книг Гуртом
Оцифрування книг Гуртом


З нами з: 13.02.11
Востаннє: 07.12.16
Повідомлень: 279

2012-07-08 12:58  
буде за годину, може швидше Wink (1) Wink (1) Wink (1)
dr_stas 
Відео Гуртом - дизайнер
Відео Гуртом - дизайнер


З нами з: 21.07.09
Востаннє: 09.12.16
Повідомлень: 452

2012-07-08 13:38  
а 720р-міні зробиш?
AngryBirdsUA 
Свій


З нами з: 24.02.10
Востаннє: 09.12.16
Повідомлень: 2861

2012-07-08 13:44  
dr_stas
я викладу сьогодні avc

Gelios 
Відео Гуртом - дизайнер
Відео Гуртом - дизайнер


З нами з: 03.09.11
Востаннє: 10.12.16
Повідомлень: 1884

2012-07-09 12:44  

Інформація про дубляж
Переклад: Олега Колеснікова
Режисер дубляжу: Анна Пащенко
Звукорежисер: Олександр Мостовенко
Ролі дублювали: Михайло Тишин, Олександр Ігнатуша, Юрій Гребельник, Юлія Перенчук, Андрій Федінчик, Денис Капустін, Андрій Твердак, Анатолій Пашнін, Сергій Озіряний та інші.

Фільм дубльований компанією PostModern у 2012 році.

Код:
[hr][spoiler=Інформація про дубляж][b]Переклад:[/b] Олега Колеснікова
[b]Режисер дубляжу:[/b] Анна Пащенко
[b]Звукорежисер:[/b] Олександр Мостовенко
[b]Ролі дублювали:[/b] [url=http://toloka.to/t30355][b]Михайло Тишин[/b][/url], [url=http://www.toloka.to/t24480][b]Олександр Ігнатуша[/b][/url], [url=http://toloka.to/t26357][b]Юрій Гребельник[/b][/url], [url=http://toloka.to/t26370][b]Юлія Перенчук[/b][/url], [url=http://toloka.to/t30681][b]Андрій Федінчик[/b][/url], Денис Капустін, [url=http://www.toloka.to/t24431][b]Андрій Твердак[/b][/url], [url=http://toloka.to/t26363][b]Анатолій Пашнін[/b][/url], Сергій Озіряний та інші.
[hr]Фільм дубльований компанією [url=http://toloka.to/t24550][b]PostModern[/b][/url] у 2012 році.[hr][/spoiler][hr]


Постер під BD (by Gelios):

Гнів Титанів / Wrath of the Titans (2012)
Код:
[url=http://posters.hurtom.com/cache/movies/bez-nazvi-2_550.png][img]http://posters.hurtom.com/albums/movies/bez-nazvi-2.png[/img][/url]


Окремо логотип:

Гнів Титанів / Wrath of the Titans (2012) (Логотип)


xfsthe 
Оцифрування книг Гуртом
Оцифрування книг Гуртом


З нами з: 13.02.11
Востаннє: 07.12.16
Повідомлень: 279

2012-08-27 07:59  
Gelios написано:

Інформація про дубляж
Постер під BD (by Gelios):
Гнів Титанів / Wrath of the Titans (2012)
Окремо логотип:
Гнів Титанів / Wrath of the Titans (2012) (Логотип)

дякую)

jarko123 
Новенький


З нами з: 02.09.12
Востаннє: 17.09.12
Повідомлень: 1

2012-09-02 11:38  
дайте,будь ласка швидкості,)
andzhej 
Частий відвідувач


З нами з: 30.08.10
Востаннє: 09.12.16
Повідомлень: 36

2013-01-29 22:26  
Автору дякую. На цьому хай із титанами завершують, а то ті америкоси не досить того, що не цікавилася міфами, так ще й нецікаво зняли фільм ну і спецефектів мало.
От для прикладу Тартар- http://uk.wikipedia.org/wiki/артар

Прокурор 
VIP


З нами з: 24.06.13
Востаннє: 09.12.16
Повідомлень: 343

2014-06-12 14:05  
бачив це кіноHappy
загалом непоганий фільм, переглянути можнаWink (1)

Ваш часовий пояс: GMT + 2 Години

Нова тема   Відповісти