Завантажити та скачати торренти українською


Ґанді / Ганді / Gandhi (1982) 720p Ukr/Eng | Sub Eng

Нові коментарі

Нова тема   Відповісти
Автор Повідомлення
chidorisaske 
Свій


З нами з: 05.06.11
Востаннє: 20.11.16
Повідомлень: 84

2012-07-07 11:21  
Ґанді / Ганді / Gandhi (1982) 720p Ukr/Eng | Sub Eng

Ґанді / Ганді / Gandhi (1982) 720p Ukr/Eng | Sub Eng


Жанр: драма, біографічний, історичний
Країна: Великобританія, Індія



Кіностудія / кінокомпанія: International Film Investors, National Film Development Corporation of India (NFDC), Goldcrest Films International
Режисер: Річард Аттенборо
Актори: Бен Кінгслі, Кендіс Берген, Едвард Фокс, Джон Гілгуд, Тревор Ховард, Джон Міллз, Мартін Шин, Іен Чарлсон, Атол Фугарда, Гюнтер Марія Халмер

Сюжет:
Фільм оповідає про життя великого індійського правителя і вчителя людства Махатми Ґанді. Починаючи з його приїзду в південну Африку в 1893-му році і закінчуючи післявоєнною Індією - Ґанді завжди й скрізь проповідував тільки мирну боротьбу, мирну відповідь будь-якому насильству. І якщо спочатку це виглядало просто смішним для багатьох, то через півстоліття світ дізнався, що проста і одночасно велика людина привела свою країну до повної незалежності від англійських колонізаторів. Людина, яка самотужки змінила світ, вказавши мільйонам шлях. Багато разів я вже висловлювався про те, що насильство може породити тільки відповідне насильство. Однак, бачачи сцени побиття і навіть розстрілу мирних індійських демонстрацій англійцями в серці розгорається скажений вогонь. У Ґанді за спиною - п'ятитисячолітня духовна мудрість її народу, яку, як виявилося, не так-то просто здолати мушкетами і затоптати солдатськими чобітьми. У 1983-му році він виграв вісім Оскарів.


Тривалість: 03:11:14
Якість: (ріп CRiSC)
Відео:
кодек:
розмір кадру: 1280х544
бітрейт: 6000 кб/с

Аудіо # 1:
мова: українська
переклад: багатоголосий закадровий
кодек: 5.1
бітрейт: 448 кб/с

Аудіо # 2:
мова: англійська
переклад: оригінал
кодек: 5.1
бітрейт: 640 кб/с

Субтитри:
мова: англійська
тип: програмні (м'які)
формат: *.srt

Джерело озвучення:
ТО "Цікава ідея" на замовлення Hurtom.com
MediaInfo
Format : Matroska
File size : 9.47 GiB
Duration : 3h 11mn
Overall bit rate : 7 089 Kbps
Encoded date : UTC 2012-07-07 01:18:52
Writing application : mkvmerge v5.6.0 ('Kenya Kane') built on May 27 2012 16:44:04
Writing library : libebml v1.2.3 + libmatroska v1.3.0

Video
ID : 1
Format : AVC
Format/Info : Advanced Video Codec
Format profile : [email protected]
Format settings, CABAC : Yes
Format settings, ReFrames : 11 frames
Codec ID : V_MPEG4/ISO/AVC
Duration : 3h 11mn
Bit rate : 6 000 Kbps
Width : 1 280 pixels
Height : 544 pixels
Display aspect ratio : 2.35:1
Frame rate : 23.976 fps
Color space : YUV
Chroma subsampling : 4:2:0
Bit depth : 8 bits
Scan type : Progressive
Bits/(Pixel*Frame) : 0.359
Stream size : 7.83 GiB (83%)
Title : Ґанді / Ганді / Gandhi (1982) 720p [Hurtom]
Writing library : core 118 r2085 8a62835
Encoding settings : cabac=1 / ref=11 / deblock=1:-3:-3 / analyse=0x3:0x133 / me=umh / subme=11 / psy=1 / psy_rd=0.90:0.10 / mixed_ref=1 / me_range=64 / chroma_me=1 / trellis=2 / 8x8dct=1 / cqm=0 / deadzone=21,11 / fast_pskip=0 / chroma_qp_offset=-3 / threads=12 / sliced_threads=0 / nr=0 / decimate=0 / interlaced=0 / bluray_compat=0 / constrained_intra=0 / bframes=11 / b_pyramid=2 / b_adapt=2 / b_bias=0 / direct=3 / weightb=1 / open_gop=0 / weightp=2 / keyint=250 / keyint_min=23 / scenecut=40 / intra_refresh=0 / rc_lookahead=40 / rc=2pass / mbtree=0 / bitrate=6000 / ratetol=1.0 / qcomp=0.60 / qpmin=0 / qpmax=69 / qpstep=4 / cplxblur=20.0 / qblur=0.5 / vbv_maxrate=50000 / vbv_bufsize=62500 / nal_hrd=none / ip_ratio=1.40 / pb_ratio=1.30 / aq=1:0.70
Language : English
Color primaries : BT.709-5, BT.1361, IEC 61966-2-4, SMPTE RP177
Transfer characteristics : BT.709-5, BT.1361
Matrix coefficients : BT.709-5, BT.1361, IEC 61966-2-4 709, SMPTE RP177

Audio #1
ID : 2
Format : AC-3
Format/Info : Audio Coding 3
Mode extension : CM (complete main)
Codec ID : A_AC3
Duration : 3h 11mn
Bit rate mode : Constant
Bit rate : 448 Kbps
Channel(s) : 6 channels
Channel positions : Front: L C R, Side: L R, LFE
Sampling rate : 48.0 KHz
Bit depth : 16 bits
Compression mode : Lossy
Stream size : 613 MiB (6%)
Title : ТО "Цікава ідея" на замовлення Hurtom.com
Language : Ukrainian

Audio #2
ID : 3
Format : AC-3
Format/Info : Audio Coding 3
Mode extension : CM (complete main)
Codec ID : A_AC3
Duration : 3h 11mn
Bit rate mode : Constant
Bit rate : 640 Kbps
Channel(s) : 6 channels
Channel positions : Front: L C R, Side: L R, LFE
Sampling rate : 48.0 KHz
Bit depth : 16 bits
Compression mode : Lossy
Stream size : 875 MiB (9%)
Title : Original
Language : English

Text
ID : 4
Format : UTF-8
Codec ID : S_TEXT/UTF8
Codec ID/Info : UTF-8 Plain Text
Language : English
Скріншоти







Джерело:


Авторський реліз (завантажувати можна без реєстрації)
 Трекер:    Зареєстрований   

Завантажити / скачати фільм українською



відео для новачків



 Зареєстрований:   2012-07-07 11:21
 Розмір:   9.47 GB 
 Оцінка фільму:   10/10 (Голосів: 10)
   
Інші релізи
   Ґанді / Ганді / Gandhi (1982) 1080p Ukr/Eng | Sub Ukr/Eng ratbol  2 / 0   21.61 GB   2012-08-25 20:56 
   Ґанді / Ганді / Gandhi (1982) 720p-mini Ukr/Eng Anonymous  5 / 0   4.37 GB   2012-06-28 15:47 
   Ґанді / Ганді / Gandhi (1982) Цікава ідея  14 / 0   2.91 GB   2012-06-27 21:51 
taras1994 
Почесний оцифрувальник літератури


З нами з: 23.03.12
Востаннє: 30.11.16
Повідомлень: 5096

2012-07-08 07:24  
Що скажуть модератори. На мою дуику бітрейт завеликий.
aalleexx85 
Відео Гуртом - фільмокрай
Відео Гуртом - фільмокрай


З нами з: 27.07.10
Востаннє: 07.12.16
Повідомлень: 1139

2012-07-08 10:10  
бітрейт якраз нормальний для 720р
chidorisaske 
Свій


З нами з: 05.06.11
Востаннє: 20.11.16
Повідомлень: 84

2012-07-08 11:30  
Забув додати що ріп від CRiSC
ratbol 
Модератор HD


З нами з: 03.02.09
Востаннє: 07.12.16
Повідомлень: 1088

2012-07-08 11:52  
taras1994
aalleexx85
Я теж вважаю, що бітрейт нормальний.

waldi-hurtom 
VIP


З нами з: 07.10.12
Востаннє: 07.12.16
Повідомлень: 611

2012-11-16 20:00  
Фільм, безумовно, чудовий. Озвучка непогана. Але! Скачав цей 720p 9.9Gb та 720p-mini 4.5Gb, порівняв кадри на 22" моніторі та на 42" плазмі. Мені та дружині здалося, що зображення у 720p-mini краще. В будь-якому випадку не гірше! Тоді навіщо зайві гигабайти? Це думка ділетанта про бітрейти 2360 vs 6000 - перемагає 2360.
Ваш часовий пояс: GMT + 2 Години

Нова тема   Відповісти