Завантажити та скачати торренти українською


«Веселі» канікули / Get the Gringo (2012) 1080p Ukr/Eng | Sub Eng | Лiцензiя

Нові коментарі

Нова тема   Відповісти
Автор Повідомлення
LiquidatorFX 
Свій


З нами з: 01.12.11
Востаннє: 11.05.16
Повідомлень: 100

2012-07-06 16:39  
«Веселі» канікули / Get the Gringo (2012) 1080p Ukr/Eng | Sub Eng | Лiцензiя

«Веселі» канікули / Get the Gringo (2012) 1080p Ukr/Eng | Sub Eng | Лiцензiя


Жанр: бойовик, драма, комедія, кримінальний, екшн
Країна: США



Кіностудія / кінокомпанія: Airborne Productions, Icon Productions
Режисер: Адріан Грюнберг
Актори: Мел Гібсон, Пітер Стормар, Дін Норріс, Боб Гантон, Скотт Коен та ін.

Сюжет:
Великого американського злочинця (Гібсона) загребли у Мексиці мiсцевi копи, та посадили до суворої в'язниці, де він навчиться виживати за допомогою 9-ти річного хлопчика.


Тривалість: 01:35:59
Якість: 1080p [рiп з Blu-ray AVC 1080p -HD MA 5.1 - HDChina]
Відео:
кодек:
розмір кадру: 1920 x 800
бітрейт: 15 000 кб/с

Джерело вiдео:


Аудіо # 1:
мова: українська
переклад: професійний дубльований
кодек: 5.1
бітрейт: 384 кб/с

Джерело озвучення:


Аудіо # 2:
мова: англійська
переклад: оригінал
кодек: 5.1
бітрейт: 1510 кб/с

Субтитри:
мова: англійська
тип: пререндерi
формат: PGS
MediaInfo
General
Unique ID : 241006633429743542089600319130834038046 (0xB55030702FBE42A097E704B778BFED1E)
Complete name : Get.the.Gringo.1080p.BluRay..Ukr.Eng.mkv
Format : Matroska
Format version : Version 2
File size : 11.3 GiB
Duration : 1h 36mn
Overall bit rate : 16.9 Mbps
Encoded date : UTC 2012-07-06 11:55:00
Writing application : mkvmerge v5.6.0 ('Kenya Kane') built on Jun 29 2012 15:01:44
Writing library : libebml v1.2.3 + libmatroska v1.3.0

Video
ID : 1
Format : AVC
Format/Info : Advanced Video Codec
Format profile : [email protected]
Format settings, CABAC : Yes
Format settings, ReFrames : 5 frames
Codec ID : V_MPEG4/ISO/AVC
Duration : 1h 36mn
Bit rate : 15.0 Mbps
Width : 1 920 pixels
Height : 800 pixels
Display aspect ratio : 2.40:1
Frame rate : 23.976 fps
Color space : YUV
Chroma subsampling : 4:2:0
Bit depth : 8 bits
Scan type : Progressive
Bits/(Pixel*Frame) : 0.407
Stream size : 9.83 GiB (87%)
Writing library : core 125 r2200 999b753
Encoding settings : cabac=1 / ref=5 / deblock=1:-3:-3 / analyse=0x3:0x113 / me=umh / subme=11 / psy=1 / psy_rd=1.20:0.00 / mixed_ref=1 / me_range=48 / chroma_me=1 / trellis=2 / 8x8dct=1 / cqm=0 / deadzone=21,11 / fast_pskip=0 / chroma_qp_offset=-2 / threads=18 / lookahead_threads=3 / sliced_threads=0 / nr=0 / decimate=0 / interlaced=0 / bluray_compat=0 / constrained_intra=0 / bframes=8 / b_pyramid=2 / b_adapt=2 / b_bias=0 / direct=3 / weightb=1 / open_gop=0 / weightp=2 / keyint=240 / keyint_min=24 / scenecut=40 / intra_refresh=0 / rc_lookahead=120 / rc=2pass / mbtree=1 / bitrate=15000 / ratetol=1.0 / qcomp=0.75 / qpmin=0 / qpmax=69 / qpstep=4 / cplxblur=20.0 / qblur=0.5 / ip_ratio=1.40 / aq=1:1.14
Language : English
Default : Yes
Forced : No

Audio #1
ID : 2
Format : AC-3
Format/Info : Audio Coding 3
Mode extension : CM (complete main)
Codec ID : A_AC3
Duration : 1h 36mn
Bit rate mode : Constant
Bit rate : 384 Kbps
Channel(s) : 6 channels
Channel positions : Front: L C R, Side: L R, LFE
Sampling rate : 48.0 KHz
Bit depth : 16 bits
Compression mode : Lossy
Delay relative to video : 650ms
Stream size : 264 MiB (2%)
Title : DD 5.1 @ 384 kbps - Дубляж, R5
Language : Ukrainian
Default : Yes
Forced : No

Audio #2
ID : 3
Format :
Format/Info : Digital Theater Systems
Codec ID : A_DTS
Duration : 1h 36mn
Bit rate mode : Constant
Bit rate : 1 510 Kbps
Channel(s) : 6 channels
Channel positions : Front: L C R, Side: L R, LFE
Sampling rate : 48.0 KHz
Bit depth : 24 bits
Compression mode : Lossy
Stream size : 1.01 GiB (9%)
Title : 5.1 @ 1510 kbps
Language : English
Default : No
Forced : No

Text
ID : 4
Format : PGS
Muxing mode : zlib
Codec ID : S_HDMV/PGS
Codec ID/Info : The same subtitle format used on BDs/HD-DVDs
Language : English
Default : Yes
Forced : No

Menu
00:00:00.000 : en:00:00:00.000
00:06:04.781 : en:00:06:04.781
00:10:42.100 : en:00:10:42.100
00:13:47.577 : en:00:13:47.577
00:16:02.795 : en:00:16:02.795
00:18:40.745 : en:00:18:40.745
00:23:49.970 : en:00:23:49.970
00:26:29.463 : en:00:26:29.463
00:30:06.263 : en:00:30:06.263
00:35:37.594 : en:00:35:37.594
00:38:36.230 : en:00:38:36.230
00:40:50.698 : en:00:40:50.698
00:45:16.130 : en:00:45:16.130
00:51:05.479 : en:00:51:05.479
00:54:01.279 : en:00:54:01.279
00:57:31.197 : en:00:57:31.197
01:00:53.399 : en:01:00:53.399
01:05:44.273 : en:01:05:44.273
01:09:17.862 : en:01:09:17.862
01:13:33.158 : en:01:13:33.158
01:18:43.093 : en:01:18:43.093
01:23:20.704 : en:01:23:20.704
01:25:49.185 : en:01:25:49.185
01:28:19.377 : en:01:28:19.377
Скріншоти


Особиста оцінка: 10 - без зайвих вагань рекомендую всім!


 Трекер:    Зареєстрований   

Завантажити / скачати фільм українською



відео для новачків



 Зареєстрований:   2012-07-06 16:39
 Розмір:   11.33 GB 
 Оцінка фільму:   8.6/10 (Голосів: 11)
   
Інші релізи
ratbol 
Модератор HD


З нами з: 03.02.09
Востаннє: 05.12.16
Повідомлень: 1088

2012-07-06 16:57  
LiquidatorFX написано:
1510 kpbs - Оригинал

Знову за своє?

LiquidatorFX 
Свій


З нами з: 01.12.11
Востаннє: 11.05.16
Повідомлень: 100

2012-07-06 17:01  
ratbol

Tongue up (2) Тобi шо не cпокiйно живеться? Wink (1)

ratbol 
Модератор HD


З нами з: 03.02.09
Востаннє: 05.12.16
Повідомлень: 1088

2012-07-07 09:17  
LiquidatorFX
Так, мене лякає коли люди редагують МІ.

LiquidatorFX 
Свій


З нами з: 01.12.11
Востаннє: 11.05.16
Повідомлень: 100

2012-07-07 11:07  
ratbol

В тебе манiя Wide grin...

ПыСы. А мене лякає людська нездорова та безглузда упередженicть...

olyx 
Відео Гуртом - підтримка та поширення
Відео Гуртом - підтримка та поширення


З нами з: 25.01.10
Востаннє: 05.10.16
Повідомлень: 231

2012-07-07 14:46  
Може перестанете прерікатися і доведете реліз до пуття???
LiquidatorFX 
Свій


З нами з: 01.12.11
Востаннє: 11.05.16
Повідомлень: 100

2012-07-07 14:50  
olyx

А шо Вам не сподобалося у релiзi? Чи вiдеряд поганий, чи звук? Чи опис не вiдповiдає тому шо роздається?

olyx 
Відео Гуртом - підтримка та поширення
Відео Гуртом - підтримка та поширення


З нами з: 25.01.10
Востаннє: 05.10.16
Повідомлень: 231

2012-07-07 16:52  
Мені не подобаються тривалі перевірки, а за реліз велике дякую. Думав дивитись в ДВД, але більше надаю перевагу 1080і...
LiquidatorFX 
Свій


З нами з: 01.12.11
Востаннє: 11.05.16
Повідомлень: 100

2012-07-07 17:18  
olyx

Ну цей роздiл (HD) просто завжди довше модерують тут, скiльки не викладав сюди, то так було завжди

Ваш часовий пояс: GMT + 2 Години

Нова тема   Відповісти