Завантажити та скачати торренти українською


Такер і Дейл проти зла / Забійні Канікули / Tucker and Dale vs Evil (2010) 720р 2xUkr/Eng

Нові коментарі

Нова тема   Відповісти
Автор Повідомлення
11FrYkT 
Модератор відео


З нами з: 20.02.11
Востаннє: 06.12.16
Повідомлень: 3100

2012-07-05 12:10  
Такер і Дейл проти зла / Забійні Канікули / Tucker and Dale vs Evil (2010) 720р 2xUkr/Eng

Такер і Дейл проти зла / Забійні Канікули / Tucker and Dale vs Evil (2010)  720р 2xUkr/Eng

«Купа жертв ... жодного маніяка »



Жанр: жахи, комедія
Країна: CША, Канада



Кіностудія / кінокомпанія: Eden Rock Media, Looby Lou, Reliance Motion Picture Company
Режисер: Елі Крейг
Актори: Тайлер Лебін, Алан Тьюдік, Кеті Боуден, Джесі Мос, Філіп Грейнджер, Брендон Джей МакЛарен, Крісті Лейн, Челан Сімонс, Тревіс Нельсон, Алекс Арсено

Сюжет:
Компанія студентів з коледжу відправляється за місто, щоб щосили відірватися на вихідних: попити пива, поплавати в озері і подихати чистим лісовим повітрям. Але вже першого ж дня вони зустрічаються з місцевими фермерами Такером і Дейлом, які вирішили подивитись на нещодавно куплений будинок і відремонтувати його. Прийнявши цих "диких", але, по суті, симпатичних хлопців за «злісних місцевих», міські студенти вирішують дати селюкам жорстку відсіч. Але з кожним їхнім кроком стає тільки гірше ....


Тривалість: 01:28:39
Якість: 720p
Відео:
кодек:
розмір кадру: 1280 х 544
бітрейт: 6591 кб/с

Аудіо # 1:
мова: українська
переклад: багатоголосий закадровий
кодек: 5.1
бітрейт: 448 кб/с

Аудіо # 2:
мова: українська
переклад: багатоголосий закадровий
кодек: 5.1
бітрейт: 448 кб/с

Аудіо # 3:
мова: англійська
переклад: оригінал
кодек: 5.1
бітрейт: 448 кб/с
MediaInfo
Код:
Tucker and Dale vs Evil (2010) 720p.mkv
   General
      UniqueID : 205027244397347416164600398188735576279 (0x9A3ECF99C3A125AA9310D949BE6F38D7)
      Complete name : Tucker and Dale vs Evil (2010) 720p.mkv
      Format : Matroska
      File size : 4.76 GiB
      Duration : 1h 28mn
      Overall bit rate : 7 686 Kbps
      Movie name : Tucker and Dale vs Evil (2010) 720p
      Encoded date : UTC 2012-07-05 09:32:02
      Writing application : mkvmerge v4.9.1 ('Ich will') зібрано Jul 11 2011 23:53:15
      Writing library : libebml v1.2.1 + libmatroska v1.1.1
   Video #1
      ID : 1
      Format : AVC
      Format/Info : Advanced Video Codec
      Format profile : [email protected]
      Format settings, CABAC : Yes
      Format settings, ReFrames : 8 frames
      Codec ID : V_MPEG4/ISO/AVC
      Duration : 1h 28mn
      Bit rate : 6 591 Kbps
      Width : 1 280 pixels
      Height : 544 pixels
      Display aspect ratio : 2.35:1
      Frame rate : 23.976 fps
      Color space : YUV
      Chroma subsampling : 4:2:0
      Bit depth : 8 bits
      Scan type : Progressive
      Bits/(Pixel*Frame) : 0.395
      Stream size : 3.99 GiB (84%)
      Title : Tucker and Dale vs Evil (2010) 720p
      Writing library : core 92 r1510 33d382a
      Encoding settings : cabac=1 / ref=8 / deblock=1:-1:-1 / analyse=0x3:0x133 / me=umh / subme=7 / psy=1 / psy_rd=1.00:0.10 / mixed_ref=1 / me_range=16 / chroma_me=1 / trellis=2 / 8x8dct=1 / cqm=0 / deadzone=21,11 / fast_pskip=0 / chroma_qp_offset=-3 / threads=6 / sliced_threads=0 / nr=0 / decimate=1 / interlaced=0 / constrained_intra=0 / bframes=3 / b_pyramid=2 / b_adapt=2 / b_bias=0 / direct=3 / wpredb=1 / wpredp=2 / keyint=250 / keyint_min=25 / scenecut=40 / intra_refresh=0 / rc_lookahead=50 / rc=2pass / mbtree=1 / bitrate=6591 / ratetol=1.0 / qcomp=0.60 / qpmin=10 / qpmax=51 / qpstep=4 / cplxblur=20.0 / qblur=0.5 / ip_ratio=1.40 / aq=1:1.00
   Audio #2
      ID : 2
      Format : AC-3
      Format/Info : Audio Coding 3
      Mode extension : CM (complete main)
      Codec ID : A_AC3
      Duration : 1h 28mn
      Bit rate mode : Constant
      Bit rate : 448 Kbps
      Channel(s) : 6 channels
      Channel positions : Front: L C R, Side: L R, LFE
      Sampling rate : 48.0 KHz
      Bit depth : 16 bits
      Compression mode : Lossy
      Stream size : 284 MiB (6%)
      Title : 5.1 @ 448 kb/s (monster mix)
      Language : Ukrainian
   Audio #3
      ID : 3
      Format : AC-3
      Format/Info : Audio Coding 3
      Mode extension : CM (complete main)
      Codec ID : A_AC3
      Duration : 1h 28mn
      Bit rate mode : Constant
      Bit rate : 192 Kbps
      Channel(s) : 2 channels
      Channel positions : Front: L R
      Sampling rate : 48.0 KHz
      Bit depth : 16 bits
      Compression mode : Lossy
      Stream size : 122 MiB (2%)
      Title : 5.1 @ 448 kb/s (1+1)
      Language : Ukrainian
   Audio #4
      ID : 4
      Format : AC-3
      Format/Info : Audio Coding 3
      Mode extension : CM (complete main)
      Codec ID : A_AC3
      Duration : 1h 28mn
      Bit rate mode : Constant
      Bit rate : 448 Kbps
      Channel(s) : 6 channels
      Channel positions : Front: L C R, Side: L R, LFE
      Sampling rate : 48.0 KHz
      Bit depth : 16 bits
      Compression mode : Lossy
      Stream size : 284 MiB (6%)
      Title : 5.1 448 kb/s
      Language : English
Світлтни






Джерело: &
Особиста оцінка: 10 - без зайвих вагань рекомендую всім!
За надані аудіодоріжки подяка пану Vasua95


Золотий реліз (завантажене не впливає на рейтинг)
 Трекер:    Зареєстрований   

Завантажити / скачати фільм українською



відео для новачків



 Зареєстрований:   2012-07-05 12:10
 Розмір:   4.76 GB 
 Оцінка фільму:   8.9/10 (Голосів: 28)
   
taras1994 
Почесний оцифрувальник літератури


З нами з: 23.03.12
Востаннє: 30.11.16
Повідомлень: 5096

2012-07-05 12:25  
Сюжет не цікавий, В фільму зупинка сюжет і так не не супер а цього фільму сюжет просто жах.
11FrYkT 
Модератор відео


З нами з: 20.02.11
Востаннє: 06.12.16
Повідомлень: 3100

2012-07-05 12:33  
taras1994 , кому як. Не скажу що супер і таке інше, але комедія весела, можна посміятися.
ratbol 
Модератор HD


З нами з: 03.02.09
Востаннє: 05.12.16
Повідомлень: 1088

2012-07-05 12:47  
Я теж не любитель таких комедій, але імдб 7.6 — це немало.
kolomyja 
Частий відвідувач


З нами з: 27.01.11
Востаннє: 03.12.16
Повідомлень: 42

2012-07-08 14:50  
Як на мене то фільм супер, просто у декого погано з гумором... Хотів би я побачити ту комедію, яку декотрі "критики" оцінюють на 10
nevesta 
Частий відвідувач


З нами з: 16.12.09
Востаннє: 13.12.14
Повідомлень: 47

2012-07-10 11:12  
taras1994 написано:
Сюжет не цікавий, В фільму зупинка сюжет і так не не супер а цього фільму сюжет просто жах.


Щось із пунктуацією не те. Та й взагалі... безграмотна писанина.

ratbol 
Модератор HD


З нами з: 03.02.09
Востаннє: 05.12.16
Повідомлень: 1088

2012-07-10 11:33  
nevesta
Пунктуація - це розділові знаки. А тут слова не в'яжуться і орфографія.

SaratRich 
Поважний учасник


З нами з: 29.05.12
Востаннє: 05.12.16
Повідомлень: 185

2012-08-10 22:24  
Чорний гумор Wink (2)
Black Horror 
Новенький


З нами з: 22.07.12
Востаннє: 18.11.16
Повідомлень: 6

2012-08-11 07:56  
Фільм справді надзвичайно смішний. Це не така пародія як "Дуже страшне кіно" і тд. Тут абсолютно самостійний фільм, дуже гарно знятий.
TRj_1995 
Новенький


З нами з: 28.05.12
Востаннє: 26.04.13
Повідомлень: 22

2012-09-13 20:28  
Ще ніколи не дивився нічого подібного! дякую!
11FrYkT 
Модератор відео


З нами з: 20.02.11
Востаннє: 06.12.16
Повідомлень: 3100

2012-09-13 21:03  
TRj_1995 , будь ласка
skuline 
Свій


З нами з: 17.12.11
Востаннє: 04.12.16
Повідомлень: 114

2013-09-28 16:39  
Класний чорний гумор фільму і на рівні український переклад. МОЛОДЦІ !
makluha maklay 
Новенький


З нами з: 29.10.10
Востаннє: 05.12.16
Повідомлень: 13

2016-01-01 23:19  
Цікавий чорний гумор. Раджу до перегляду =)
vishnu 
Новенький


З нами з: 06.10.15
Востаннє: 03.12.16
Повідомлень: 5

2016-08-17 16:01  
Дуже класний фільм, дивився декілька раз в кацапській озвучці, тепер перегляну ще й українською. Дякую.
Ваш часовий пояс: GMT + 2 Години

Нова тема   Відповісти