Завантажити та скачати торренти українською


Багрові ріки. Дилогія / Les rivieres pourpres. Dilogy (2000-2004) 1080p Ukr/Fra | Sub Eng

Нові коментарі

Нова тема   Відповісти
Автор Повідомлення
11FrYkT 
Модератор відео


З нами з: 20.02.11
Востаннє: 05.12.16
Повідомлень: 3092

2012-07-04 09:14  
Багрові ріки. Дилогія / Les rivieres pourpres. Dilogy (2000-2004) 1080p Ukr/Fra | Sub Eng

Багрові ріки. Дилогія / Les rivieres pourpres. Dilogy (2000-2004) 1080p Ukr/Fra | Sub Eng


Жанр: Жанр: трилер, бойовик, кримінальний, детектив
Країна: Франція, Італія, Великобританія

Кіностудія / кінокомпанія: Gaumont, Studio Légende
Режисер: Матьє Кассовіц / Mathieu Kassovitz, Олів'є Даан / Olivier Dahan
Актори: Жан Рено /Jean Reno/, Вінсент Кассель /Vincent Cassel/, Надя Фарес /Nadia Farès/, Бенуа Мажимель /Benoit Magimel/, Крістофер Лі /Christopher Lee/
Багрові ріки / Les rivières pourpres (2000) 1080p Ukr/Fra | Sub Eng

Багрові ріки / Les rivières pourpres (2000) 1080p Ukr/Fra | Sub Eng

Багрові ріки. Дилогія / Les rivieres pourpres. Dilogy (2000-2004) 1080p Ukr/Fra | Sub Eng

«Зло піднімається до нових висот».



Жанр: трилер, кримінальний, містика
Країна: Франція



Кіностудія / кінокомпанія: Gaumont
Режисер: Матьє Кассовіц / Mathieu Kassovitz
Актори: Жан Рено /Jean Reno/, Вінсент Кассель /Vincent Cassel/, Надя Фарес /Nadia Farès/, Домінік Санда /Dominique Sanda/, Карім Белхадра /Karim Belkhadra/, Жан-П'єр Кассель /Jean-Pierre Cassel/, Дідьє Фламан /Didier Flamand/, Франсуа Леванталь /François Levantal/, Філіпп Наон /Philippe Nahon/

Сюжет:
В престижному коледжі в Альпах здійснено звіряче вбивство, яке розслідує досвідчений комісар поліції П'єр Ньєманс. Тим часом в іншому містечку відбувається ще один, досить дивний злочин — хтось розкопав і споганив могилу 10-річної дівчинки. Цю справу веде молодий детектив Макс Керкер'ян. Здається, між даними подіями немає звязку. Але він існує! І коли обидва поліцейських виявляють його, до сих пір бачені ними заурядні злочини поступово тьмяніють в порівнянні з тим серцем темноти, куди приведуть їх пошуки правди. Смертельно небезпечної правди…


Тривалість: 01:45:47
Якість: 1080p
Відео:
кодек:
розмір кадру: 1920 х 816
бітрейт: 5460 кб/с

Аудіо # 1:
мова: українська
переклад: багатоголосий закадровий
кодек: 5.1
бітрейт: 448 кб/с

Аудіо # 2:
мова: французька
переклад: оригінал
кодек: 5.1
бітрейт: 448 кб/с

Джерело озвучення:


Субтитри:
мова: англійська
тип: програмні (м'які)
формат: *.srt
MediaInfo
Код:
Les rivieres pourpres (2000, 2004) 1080p\Les rivieres pourpres (2000) 1080p.mkv
   General
      UniqueID : 200925100473986470474179703214497946154 (0x9728C44A43B6C28682FB23F3840D5A2A)
      Complete name : Les rivieres pourpres (2000, 2004) 1080p\Les rivieres pourpres (2000) 1080p.mkv
      Format : Matroska
      File size : 4.70 GiB
      Duration : 1h 45mn
      Overall bit rate : 6 357 Kbps
      Movie name : Les rivieres pourpres (2000) 1080p
      Encoded date : UTC 2012-07-03 16:15:22
      Writing application : mkvmerge v4.9.1 ('Ich will') зібрано Jul 11 2011 23:53:15
      Writing library : libebml v1.2.1 + libmatroska v1.1.1
   Video #1
      ID : 1
      Format : AVC
      Format/Info : Advanced Video Codec
      Format profile : [email protected]
      Format settings, CABAC : Yes
      Format settings, ReFrames : 5 frames
      Codec ID : V_MPEG4/ISO/AVC
      Duration : 1h 45mn
      Bit rate : 5 460 Kbps
      Width : 1 920 pixels
      Height : 816 pixels
      Display aspect ratio : 2.35:1
      Frame rate : 23.976 fps
      Color space : YUV
      Chroma subsampling : 4:2:0
      Bit depth : 8 bits
      Scan type : Progressive
      Bits/(Pixel*Frame) : 0.145
      Stream size : 3.94 GiB (84%)
      Title : Les rivieres pourpres (2000) 1080p
      Writing library : core 120 r2164+656 2ff844c
      Encoding settings : cabac=1 / ref=5 / deblock=1:0:0 / analyse=0x3:0x133 / me=umh / subme=10 / psy=1 / fade_compensate=0.00 / psy_rd=1.00:0.10 / mixed_ref=1 / me_range=32 / chroma_me=1 / trellis=2 / 8x8dct=1 / cqm=0 / deadzone=21,11 / fast_pskip=0 / chroma_qp_offset=-3 / threads=6 / sliced_threads=0 / nr=0 / decimate=1 / interlaced=0 / bluray_compat=0 / constrained_intra=0 / fgo=0 / bframes=6 / b_pyramid=2 / b_adapt=2 / b_bias=0 / direct=3 / weightb=1 / open_gop=0 / weightp=2 / keyint=240 / keyint_min=24 / scenecut=40 / intra_refresh=0 / rc_lookahead=70 / rc=2pass / mbtree=1 / bitrate=5460 / ratetol=1.0 / qcomp=0.60 / qpmin=0 / qpmax=69 / qpstep=4 / cplxblur=20.0 / qblur=0.5 / ip_ratio=1.40 / aq=1:1.00
      Language : French
   Audio #2
      ID : 2
      Format : AC-3
      Format/Info : Audio Coding 3
      Mode extension : CM (complete main)
      Codec ID : A_AC3
      Duration : 1h 45mn
      Bit rate mode : Constant
      Bit rate : 448 Kbps
      Channel(s) : 6 channels
      Channel positions : Front: L C R, Side: L R, LFE
      Sampling rate : 48.0 KHz
      Bit depth : 16 bits
      Compression mode : Lossy
      Stream size : 339 MiB (7%)
      Title : Багатоголосий закадровий (Інтер)
      Language : Ukrainian
   Audio #3
      ID : 3
      Format : AC-3
      Format/Info : Audio Coding 3
      Mode extension : CM (complete main)
      Codec ID : A_AC3
      Duration : 1h 45mn
      Bit rate mode : Constant
      Bit rate : 448 Kbps
      Channel(s) : 6 channels
      Channel positions : Front: L C R, Side: L R, LFE
      Sampling rate : 48.0 KHz
      Bit depth : 16 bits
      Compression mode : Lossy
      Stream size : 339 MiB (7%)
      Language : French
   Text #4
      ID : 4
      Format : UTF-8
      Codec ID : S_TEXT/UTF8
      Codec ID/Info : UTF-8 Plain Text
      Language : English

Скріншоти







Джерело:
Особиста оцінка: 0 - не дивився
Багрові ріки 2. Янголи апокаліпсу / Les rivières pourpres II - Les anges de l'apocalypse (2004) 1080p Ukr/Fra | Sub Eng

Багрові ріки 2. Янголи апокаліпсу / Les rivières pourpres II - Les anges de l'apocalypse (2004) 1080p Ukr/Fra | Sub Eng

Багрові ріки. Дилогія / Les rivieres pourpres. Dilogy (2000-2004) 1080p Ukr/Fra | Sub Eng

«Час не чекає! Через дві години відбудеться суд! »



Жанр: трилер, бойовик, кримінальний, детектив
Країна: Франція, Італія, Великобританія



Кіностудія / кінокомпанія: Studio Légende
Режисер: Олів'є Даан / Olivier Dahan
Актори: Жан Рено /Jean Reno/, Бенуа Мажимель /Benoit Magimel/, Крістофер Лі /Christopher Lee/, Каміль Натта /Camille Natta/, Джонні Холлідей /Johnny Hallyday/, Габріель Лазур /Gabrielle Lazure

Сюжет:
Капітан П'єр Німан – поліцейський. До біса хороший поліцейський. Один з кращих. Його робота потрібна в особливих випадках. Він розумний і хоробрий, за словом в кишеню не полізе. Він любить працювати один, але часто йому потрібний напарник, а то і два. Він ненавидить собак, але має свою власну – йоркширського тер'єра.
Йому доставляє радість віддати по заслугах бандитам і вбивцям, тим паче, що вони вірять в свою безкарність, поки не перейдуть дорогу П'єру Німану. Німан розслідує справу про людину, замуровану в стіну із загадковими знаками. В цей час Реда, молодий капітан поліції, знаходить біля дверей церкви напівмертвого двійника Ісуса Хріста. Реда вважає, що ця історія якось пов'язана з розслідуванням Німана, учнем якого він був в поліцейській школі.
У окрузі продовжуються вбивства: таємничі ченці, що володіють надприродною силою, вбивають випадкових стрічних і зникають безслідно.


Тривалість: 01:39:05
Якість: 1080p
Відео:
кодек:
розмір кадру: 1920 х 808
бітрейт: 5859 кб/с

Аудіо # 1:
мова: українська
переклад: двоголосий закадровий
кодек: 5.1
бітрейт: 448 кб/с

Аудіо # 2:
мова: французька
переклад: оригінал
кодек: 5.1
бітрейт: 448 кб/с

Джерело озвучення:


Субтитри:
мова: англійська
тип: програмні (м'які)
формат: *.srt
MediaInfo
Код:
Les rivieres pourpres (2000, 2004) 1080p\Les rivieres pourpres II - Les anges de lapocalypse (2004) 1080p.mkv
   General
      UniqueID : 174333755339544360381765479143637961670 (0x832775C0C381F69389FC4B350056CBC6)
      Complete name : Les rivieres pourpres (2000, 2004) 1080p\Les rivieres pourpres II - Les anges de lapocalypse (2004) 1080p.mkv
      Format : Matroska
      File size : 4.67 GiB
      Duration : 1h 39mn
      Overall bit rate : 6 751 Kbps
      Movie name : Les rivieres pourpres II: Les anges de l'apocalypse (2004) 1080p
      Encoded date : UTC 2012-07-03 17:13:28
      Writing application : mkvmerge v4.9.1 ('Ich will') зібрано Jul 11 2011 23:53:15
      Writing library : libebml v1.2.1 + libmatroska v1.1.1
      Cover : Yes / Yes
   Video #1
      ID : 1
      Format : AVC
      Format/Info : Advanced Video Codec
      Format profile : [email protected]
      Format settings, CABAC : Yes
      Format settings, ReFrames : 5 frames
      Codec ID : V_MPEG4/ISO/AVC
      Duration : 1h 39mn
      Bit rate : 5 859 Kbps
      Width : 1 920 pixels
      Height : 808 pixels
      Display aspect ratio : 2.35:1
      Frame rate : 23.976 fps
      Color space : YUV
      Chroma subsampling : 4:2:0
      Bit depth : 8 bits
      Scan type : Progressive
      Bits/(Pixel*Frame) : 0.158
      Stream size : 3.96 GiB (85%)
      Title : Les rivieres pourpres II: Les anges de l'apocalypse (2004) 1080p
      Writing library : core 122 r2184 5c85e0a
      Encoding settings : cabac=1 / ref=5 / deblock=1:0:0 / analyse=0x3:0x133 / me=umh / subme=10 / psy=1 / psy_rd=1.00:0.10 / mixed_ref=1 / me_range=32 / chroma_me=1 / trellis=2 / 8x8dct=1 / cqm=0 / deadzone=21,11 / fast_pskip=0 / chroma_qp_offset=-3 / threads=6 / sliced_threads=0 / nr=0 / decimate=1 / interlaced=0 / bluray_compat=0 / constrained_intra=0 / bframes=6 / b_pyramid=2 / b_adapt=2 / b_bias=0 / direct=3 / weightb=1 / open_gop=0 / weightp=2 / keyint=240 / keyint_min=24 / scenecut=40 / intra_refresh=0 / rc_lookahead=70 / rc=2pass / mbtree=1 / bitrate=5859 / ratetol=1.0 / qcomp=0.70 / qpmin=0 / qpmax=69 / qpstep=4 / cplxblur=20.0 / qblur=0.5 / ip_ratio=1.40 / aq=1:1.00
      Language : French
   Audio #2
      ID : 2
      Format : AC-3
      Format/Info : Audio Coding 3
      Mode extension : CM (complete main)
      Codec ID : A_AC3
      Duration : 1h 39mn
      Bit rate mode : Constant
      Bit rate : 448 Kbps
      Channel(s) : 6 channels
      Channel positions : Front: L C R, Side: L R, LFE
      Sampling rate : 48.0 KHz
      Bit depth : 16 bits
      Compression mode : Lossy
      Video delay : 19s 800ms
      Stream size : 318 MiB (7%)
      Title : Двоголосий закадровий (КІНО)
      Language : Ukrainian
   Audio #3
      ID : 3
      Format : AC-3
      Format/Info : Audio Coding 3
      Mode extension : CM (complete main)
      Codec ID : A_AC3
      Duration : 1h 39mn
      Bit rate mode : Constant
      Bit rate : 448 Kbps
      Channel(s) : 6 channels
      Channel positions : Front: L C R, Side: L R, LFE
      Sampling rate : 48.0 KHz
      Bit depth : 16 bits
      Compression mode : Lossy
      Video delay : 19s 800ms
      Stream size : 318 MiB (7%)
      Language : French
   Text #4
      ID : 4
      Format : UTF-8
      Codec ID : S_TEXT/UTF8
      Codec ID/Info : UTF-8 Plain Text
      Language : English

Світлини







Джерело:
Особиста оцінка: 0 - не дивився


Срібний реліз (на рейтинг впливає 50% завантаженого)
 Трекер:    Зареєстрований   

Завантажити / скачати фільм українською



відео для новачків



 Зареєстрований:   2012-07-04 09:14
 Розмір:   9.37 GB 
 Оцінка фільму:   8.7/10 (Голосів: 6)
   
Kitler 
Модератор програмного забезпечення


З нами з: 22.04.11
Востаннє: 05.12.16
Повідомлень: 591

2012-07-04 09:50  
Дивися колись по телевізору, але не пам'ятаю чи по Інтеру. Здається, назва там була "Багряні ріки". Фільм досить цікавий, раджу подивитися.
11FrYkT 
Модератор відео


З нами з: 20.02.11
Востаннє: 05.12.16
Повідомлень: 3092

2012-07-04 10:07  
Kitler, можливо і "Багряні ріки", але в інших роздачах(тай на самих обкладинках) Багрові, тому і я так писав. Потрібно переглянути бо сам ще не дивився
drtato 
Свій


З нами з: 28.10.10
Востаннє: 05.12.16
Повідомлень: 96

2012-07-04 10:53  
Як на мене то вірно буде _БАГРЯНІ РІКИ_. Багрові це калька з російської....
vovchyck 
Свій


З нами з: 22.02.09
Востаннє: 04.12.16
Повідомлень: 145

2012-07-04 11:23  
drtato
Правду кажете. Словниками і далі ніхто не користується
11FrYkT
і шо якшо всі з мосту то ви за ними?

11FrYkT 
Модератор відео


З нами з: 20.02.11
Востаннє: 05.12.16
Повідомлень: 3092

2012-07-04 11:45  
vovchyck ,
Справане в тому що всі з мосту, просто:
1) Той хто буде шукати ці фільми тільки за українською назвою, не буде їх знаходити.
2) Українські обкладенки зроблені на таку назву.
3) Якщо міняти назву то кругом

taras1994 
Почесний оцифрувальник літератури


З нами з: 23.03.12
Востаннє: 30.11.16
Повідомлень: 5096

2012-07-04 12:17  
vovchyck написано:

drtato
Правду кажете. Словниками і далі ніхто не користується
11FrYkT
і шо якшо всі з мосту то ви за ними?

та чому ви на хлопця напали?
Вперед, зроби реліз назви його правильно!
а таким тоном ніхто не вказує на недоліки, ну то як будеш робити "правильний реліз"?(vovchyck )

_oles 
Відео Гуртом - фільмокрай
Відео Гуртом - фільмокрай


З нами з: 07.11.08
Востаннє: 21.11.16
Повідомлень: 1399

2012-07-04 12:39  
Назва проставляється згідно перекладу у фільмі. З претензіями до каналу,який транслював та перекладав.
ratbol 
Модератор HD


З нами з: 03.02.09
Востаннє: 01.12.16
Повідомлень: 1088

2012-07-04 13:31  
У другій частині оригінальна доріжка з двд?
Я колись теж хотів зробити цю логію в хд, але зіткнувся з проблемою різних фпс укр доріжки (23,976) та блурея (24).

11FrYkT 
Модератор відео


З нами з: 20.02.11
Востаннє: 05.12.16
Повідомлень: 3092

2012-07-04 13:56  
ratbol .
оригінальна не знаю, відео 23,976 і укр. теж. Можливо оригінал з двд.

Ваш часовий пояс: GMT + 2 Години

Нова тема   Відповісти