Завантажити та скачати торренти українською


Довгий поцілунок на добраніч / The Long Kiss Goodnight (1996) 720p Ukr/Eng | Sub Eng

Нові коментарі

Нова тема   Відповісти
Автор Повідомлення
11FrYkT 
Модератор відео


З нами з: 20.02.11
Востаннє: 05.12.16
Повідомлень: 3097

2012-07-04 08:33  
Довгий поцілунок на добраніч / The Long Kiss Goodnight (1996) 720p Ukr/Eng | Sub Eng

Довгий поцілунок на добраніч / The Long Kiss Goodnight (1996) 720p Ukr/Eng | Sub Eng


Жанр: бойовик, трилер, кримінал.
Країна: США



Кіностудія / кінокомпанія: Forge / New Line Cinema
Режисер: Ренні Херлін
Актори: Джина Девіс, Семюел Л. Джексон, Івонн Зіма, Крейг Бірко, Том Амандес, Браян Кокс, Патрік Мелахайд, Девід Морс, Джозеф МакКенна, Меліна Канакаредес

Сюжет:
8 років тому шкільна вчителька Саманта Кейн перенесла повну втрату пам'яті. Вона живе з 8-річною дочкою щасливим родинним життям і не підозрює про своє криваве минуле, адже колись ця красива жінка була агентом Чарлі Бедтімор, що виконував секретні замовлення ЦРУ.

Шокована несподіваним поверненням деяких навиків і психологічної підготовки професійного кілера, Саманта намагається розібратися в своєму минулому. Детектив Мітч Хенесси, що почав з розслідування життя простої вчительки, виявляється втягнутим разом з Самантой в секретну операцію ЦРУ.


Тривалість: 02:00:33
Якість: 720p
Відео:
кодек:
розмір кадру: 1280 х 536
бітрейт: 6059 кб/с

Аудіо # 1:
мова: українська
переклад: двоголосий закадровий
кодек: 2.0
бітрейт: 192 кб/с

Аудіо # 2:
мова: англійська
переклад: оригінал
кодек: 5.1
бітрейт: 768 кб/с

Джерело озвучення:


Субтитри:
мова: англійська
тип: програмні (м'які)
формат: *.srt
MediaInfo
Код:
The Long Kiss Goodnight (1996) 720p.mkv
   General
      UniqueID : 187568164649845067012853805649066834858 (0x8D1C50828049FE84BF817EA18569BBAA)
      Complete name : The Long Kiss Goodnight (1996) 720p.mkv
      Format : Matroska
      File size : 6.02 GiB
      Duration : 2h 0mn
      Overall bit rate : 7 148 Kbps
      Encoded date : UTC 2012-07-02 18:55:33
      Writing application : mkvmerge v4.9.1 ('Ich will') зібрано Jul 11 2011 23:53:15
      Writing library : libebml v1.2.1 + libmatroska v1.1.1
   Video #1
      ID : 1
      Format : AVC
      Format/Info : Advanced Video Codec
      Format profile : [email protected]
      Format settings, CABAC : Yes
      Format settings, ReFrames : 12 frames
      Codec ID : V_MPEG4/ISO/AVC
      Duration : 2h 0mn
      Bit rate : 6 059 Kbps
      Width : 1 280 pixels
      Height : 536 pixels
      Display aspect ratio : 2.35:1
      Frame rate : 23.976 fps
      Color space : YUV
      Chroma subsampling : 4:2:0
      Bit depth : 8 bits
      Scan type : Progressive
      Bits/(Pixel*Frame) : 0.368
      Stream size : 5.10 GiB (85%)
      Title : The Long Kiss Goodnight (1996)
      Writing library : core 112 r1867 22bfd31
      Encoding settings : cabac=1 / ref=12 / deblock=1:-3:-3 / analyse=0x3:0x133 / me=umh / subme=10 / psy=1 / psy_rd=1.00:0.05 / mixed_ref=1 / me_range=32 / chroma_me=1 / trellis=2 / 8x8dct=1 / cqm=0 / deadzone=21,11 / fast_pskip=0 / chroma_qp_offset=-3 / threads=12 / sliced_threads=0 / nr=0 / decimate=0 / interlaced=0 / constrained_intra=0 / bframes=7 / b_pyramid=2 / b_adapt=2 / b_bias=0 / direct=1 / weightb=1 / open_gop=0 / weightp=2 / keyint=250 / keyint_min=23 / scenecut=40 / intra_refresh=0 / rc_lookahead=40 / rc=crf / mbtree=0 / crf=17.0 / qcomp=0.60 / qpmin=0 / qpmax=51 / qpstep=4 / vbv_maxrate=50000 / vbv_bufsize=62500 / crf_max=0.0 / nal_hrd=none / ip_ratio=1.40 / pb_ratio=1.30 / aq=1:0.70
      Language : English
      Color primaries : BT.709-5, BT.1361, IEC 61966-2-4, SMPTE RP177
      Transfer characteristics : BT.709-5, BT.1361
      Matrix coefficients : BT.709-5, BT.1361, IEC 61966-2-4 709, SMPTE RP177
   Audio #2
      ID : 2
      Format : AC-3
      Format/Info : Audio Coding 3
      Mode extension : CM (complete main)
      Codec ID : A_AC3
      Duration : 2h 0mn
      Bit rate mode : Constant
      Bit rate : 192 Kbps
      Channel(s) : 2 channels
      Channel positions : Front: L R
      Sampling rate : 48.0 KHz
      Bit depth : 16 bits
      Compression mode : Lossy
      Stream size : 166 MiB (3%)
      Title : ICTV 2.0 @ 192 kb/s
      Language : Ukrainian
   Audio #3
      ID : 3
      Format :
      Format/Info : Digital Theater Systems
      Codec ID : A_DTS
      Duration : 2h 0mn
      Bit rate mode : Constant
      Bit rate : 755 Kbps
      Channel(s) : 6 channels
      Channel positions : Front: L C R, Side: L R, LFE
      Sampling rate : 48.0 KHz
      Bit depth : 24 bits
      Compression mode : Lossy
      Stream size : 651 MiB (11%)
      Title : 5.1 @ 768 kb/s
      Language : English
   Text #4
      ID : 4
      Format : UTF-8
      Codec ID : S_TEXT/UTF8
      Codec ID/Info : UTF-8 Plain Text
      Title : Eng
      Language : English
Світлини






Джерело:
Особиста оцінка: 0 - не дивився


Срібний реліз (на рейтинг впливає 50% завантаженого)
 Трекер:    Зареєстрований   

Завантажити / скачати фільм українською



відео для новачків



 Зареєстрований:   2012-07-04 08:33
 Розмір:   6.02 GB 
 Оцінка фільму:   7.3/10 (Голосів: 6)
   
DiGen 
Модератор HD та координатор Команди HD
Модератор HD та координатор Команди HD


З нами з: 12.11.09
Востаннє: 24.06.13
Повідомлень: 1452

2012-07-05 13:07  
А текст опису чому з московитськими словами?
11FrYkT 
Модератор відео


З нами з: 20.02.11
Востаннє: 05.12.16
Повідомлень: 3097

2012-07-05 13:28  
DiGen , опис брав вже з існуючих роздач, тому і не звернув увагу, якщо не важко вкажіть їх.
срібло буде?

Ваш часовий пояс: GMT + 2 Години

Нова тема   Відповісти