Завантажити та скачати торренти українською


1+1 / Недоторканні / Intouchables (2011) 1080p 3xUkr/Fre | Sub 2xUkr/Fre

Нові коментарі

Нова тема   Відповісти
Автор Повідомлення
ratbol 
Модератор HD


З нами з: 03.02.09
Востаннє: 07.12.16
Повідомлень: 1088

2012-07-03 10:51  
1+1 / Недоторканні / Intouchables (2011) 1080p 3xUkr/Fre | Sub 2xUkr/Fre



Альтернативні постери



Жанр: комедія, драма
Країна: Франція



Кіностудія / кінокомпанія: Quad Productions, Chaocorp, Gaumont
Режисер: Олів'є Накаш, Ерік Толедано.
Актори: Франсуа Клюзе, Омар Сі, Анн Ле Ні, Одрі Флеро, Клотільд Молле, Альба Гайя Крагеде Беллуджі, Сіріл Менді та інші
Рейтинг MPAA: (дітям до 17 років обов'язкова присутність батьків або дорослого опікуна)

Сюжет:
Ставши інвалідом в результаті нещасного випадку, багатій Філіп наймає в помічники людину, що менше всього підходить для цієї роботи - молодого мешканця нетрів Дрісса, який щойно звільнився з в'язниці. Незважаючи на те, що Філіп прикутий до інвалідного крісла, Дріссу вдається привнести в розмірене існування багатія дух пригод та жагу життя.


Тривалість: 01:52:02
Якість: 1080p
Відео:
кодек:
розмір кадру: 1920 x 1040
бітрейт: 16656 кб/с

Аудіо # 1:
мова: українська
переклад: професійний дубльований | запис з 1+1
кодек: 2.0
бітрейт: 192 кб/с Аудіо # 2:
мова: українська
переклад: багатоголосий закадровий
кодек: 5.1
бітрейт: 448 кб/с
Про озвучення
Озвучено в 2012 році студією AAA-sound на замовлення компанії Каскад Україна
Режисер: Олександр Єфімов
Ролі озвучили: Анатолій Зіновенко, Андрій Альохін, Юлія Перенчук, Юрій Ребрик, Ірина Грей та інші.
Аудіо # 3:
мова: українська
переклад: багатоголосий закадровий | Hurtom
кодек: 5.1
бітрейт: 1536 кб/с
Про озвучення
Переклад: Gashik
Редактор: Сеник Ольга
Ролі озвучили: Mister rock, Ліра Грім, Вадим re:porter, Ігор Гонщик, Тетяна ТараТаран
Монтаж звуку: Vitall_Digitall
Координатор проекту: Mirqn
Аудіо # 3:
мова: французька
переклад: оригінал
кодек: 5.1
бітрейт: 1536 кб/с

Субтитри:
мова: українська (від AlanAlan, Gashik і Сеник Ольга), українська (від SergoMozaic), французька
тип: програмні (м'які)
формат: *.srt

Оригінальні розділи:
Збережено

MediaInfo
General
Unique ID : 176117211959874873595005499983829522452 (0x847EF0F406D4B5A992F1DB9C8579D814)
Complete name : G:\Intouchables (2011) [3xUkr, Fre. Sub 2xUkr, Fre, Eng] 1080p [Hurtom].mkv
Format : Matroska
Format version : Version 4 / Version 2
File size : 15.9 GiB
Duration : 1h 52mn
Overall bit rate : 20.3 Mbps
Movie name : Intouchables (2011) [Hurtom]
Encoded date : UTC 2013-03-24 06:15:34
Writing application : mkvmerge v6.1.0 ('Old Devil') built on Mar 2 2013 14:32:37
Writing library : libebml v1.3.0 + libmatroska v1.4.0

Video
ID : 1
Format : AVC
Format/Info : Advanced Video Codec
Format profile : [email protected]
Format settings, CABAC : Yes
Format settings, ReFrames : 4 frames
Codec ID : V_MPEG4/ISO/AVC
Duration : 1h 52mn
Bit rate : 16.7 Mbps
Width : 1 920 pixels
Height : 1 040 pixels
Display aspect ratio : 1.85:1
Frame rate mode : Constant
Frame rate : 24.000 fps
Color space : YUV
Chroma subsampling : 4:2:0
Bit depth : 8 bits
Scan type : Progressive
Bits/(Pixel*Frame) : 0.348
Stream size : 12.7 GiB (80%)
Title : Ріп від EbP
Writing library : core 120 r2164 da19765
Encoding settings : cabac=1 / ref=4 / deblock=1:-3:-3 / analyse=0x3:0x133 / me=umh / subme=10 / psy=1 / psy_rd=0.95:0.00 / mixed_ref=1 / me_range=36 / chroma_me=1 / trellis=2 / 8x8dct=1 / cqm=0 / deadzone=21,11 / fast_pskip=0 / chroma_qp_offset=-2 / threads=6 / sliced_threads=0 / nr=0 / decimate=0 / interlaced=0 / bluray_compat=0 / constrained_intra=0 / bframes=9 / b_pyramid=2 / b_adapt=2 / b_bias=0 / direct=3 / weightb=1 / open_gop=0 / weightp=2 / keyint=360 / keyint_min=2 / scenecut=40 / intra_refresh=0 / rc=2pass / mbtree=0 / bitrate=16656 / ratetol=1.0 / qcomp=0.65 / qpmin=0 / qpmax=69 / qpstep=4 / cplxblur=20.0 / qblur=0.5 / ip_ratio=1.40 / pb_ratio=1.30 / aq=1:1.10
Language : French
Default : Yes
Forced : No

Audio #1
ID : 2
Format : AC-3
Format/Info : Audio Coding 3
Mode extension : CM (complete main)
Format settings, Endianness : Big
Codec ID : A_AC3
Duration : 1h 52mn
Bit rate mode : Constant
Bit rate : 192 Kbps
Channel(s) : 2 channels
Channel positions : Front: L R
Sampling rate : 48.0 KHz
Bit depth : 16 bits
Compression mode : Lossy
Stream size : 154 MiB (1%)
Title : 2.0 [192 Kbps] — професійний дубльований | запис з 1+1
Language : Ukrainian
Default : Yes
Forced : No

Audio #2
ID : 3
Format : AC-3
Format/Info : Audio Coding 3
Mode extension : CM (complete main)
Format settings, Endianness : Big
Codec ID : A_AC3
Duration : 1h 52mn
Bit rate mode : Constant
Bit rate : 448 Kbps
Channel(s) : 6 channels
Channel positions : Front: L C R, Side: L R, LFE
Sampling rate : 48.0 KHz
Bit depth : 16 bits
Compression mode : Lossy
Delay relative to video : 3s 40ms
Stream size : 359 MiB (2%)
Title : 5.1 [448 Kbps] — багатоголосий закадровий | AAA Sound
Language : Ukrainian
Default : No
Forced : No

Audio #3
ID : 4
Format :
Format/Info : Digital Theater Systems
Mode : 16
Format settings, Endianness : Big
Codec ID : A_DTS
Duration : 1h 52mn
Bit rate mode : Constant
Bit rate : 1 509 Kbps
Channel(s) : 6 channels
Channel positions : Front: L C R, Side: L R, LFE
Sampling rate : 48.0 KHz
Bit depth : 24 bits
Compression mode : Lossy
Stream size : 1.18 GiB (7%)
Title : 5.1 [1536 Kbps] — багатоголосий закадровий | Hurtom
Language : Ukrainian
Default : No
Forced : No

Audio #4
ID : 5
Format :
Format/Info : Digital Theater Systems
Mode : 16
Format settings, Endianness : Big
Codec ID : A_DTS
Duration : 1h 52mn
Bit rate mode : Constant
Bit rate : 1 509 Kbps
Channel(s) : 6 channels
Channel positions : Front: L C R, Side: L R, LFE
Sampling rate : 48.0 KHz
Bit depth : 24 bits
Compression mode : Lossy
Stream size : 1.18 GiB (7%)
Title : 5.1 [1536 Kbps] — оригінал
Language : French
Default : No
Forced : No

Text #1
ID : 6
Format : UTF-8
Codec ID : S_TEXT/UTF8
Codec ID/Info : UTF-8 Plain Text
Title : by AlanAlan
Language : Ukrainian
Default : No
Forced : No

Text #2
ID : 7
Format : UTF-8
Codec ID : S_TEXT/UTF8
Codec ID/Info : UTF-8 Plain Text
Title : by SergoMozaic
Language : Ukrainian
Default : No
Forced : No

Text #3
ID : 8
Format : UTF-8
Codec ID : S_TEXT/UTF8
Codec ID/Info : UTF-8 Plain Text
Language : French
Default : No
Forced : No

Menu
00:00:00.000 : en:00:00:00.000
00:07:26.000 : en:00:07:26.000
00:12:54.375 : en:00:12:54.375
00:18:56.667 : en:00:18:56.667
00:26:51.958 : en:00:26:51.958
00:30:50.708 : en:00:30:50.708
00:37:26.208 : en:00:37:26.208
00:42:05.667 : en:00:42:05.667
00:48:45.333 : en:00:48:45.333
00:54:26.250 : en:00:54:26.250
00:58:02.708 : en:00:58:02.708
01:04:06.833 : en:01:04:06.833
01:14:27.042 : en:01:14:27.042
01:21:39.833 : en:01:21:39.833
01:29:26.125 : en:01:29:26.125
01:35:56.875 : en:01:35:56.875
01:40:22.042 : en:01:40:22.042
01:45:12.542 : en:01:45:12.542



Цитата:
За українські субтитри подяка Gashik, Сеник Ольга, AlanAlan, SergoMozaic.
За запис сирого звуку до доріжки # 1 подяка sando7, OlegCena, andic, MAKAPOHHIK.
За синхронізацію доріжки # 1 подяка karvai0.
За постери подяка Gelios.
.

Джерело:
Особиста оцінка: 10


Золотий реліз (завантажене не впливає на рейтинг)
 Трекер:    Зареєстрований   

Завантажити / скачати фільм українською



відео для новачків



 Зареєстрований:   2013-03-24 10:23
 Розмір:   15.9 GB 
 Оцінка фільму:   10/10 (Голосів: 67)
   
Інші релізи
taras1994 
Почесний оцифрувальник літератури


З нами з: 23.03.12
Востаннє: 30.11.16
Повідомлень: 5096

2012-07-03 11:41  
http://toloka.to/t35444 а цей варіант чому не в інших релізах і знаходиться лише через пошук.
ratbol 
Модератор HD


З нами з: 03.02.09
Востаннє: 07.12.16
Повідомлень: 1088

2012-07-03 12:08  
taras1994
Назва не сходиться

trofum911 
Свій


З нами з: 31.01.12
Востаннє: 01.12.16
Повідомлень: 148

2012-07-09 16:09  
чи то в мене щось з плеєром, або що? Аудіо весь час запізнюється
11FrYkT 
Модератор відео


З нами з: 20.02.11
Востаннє: 09.12.16
Повідомлень: 3132

2012-07-09 16:21  
Фільм бомба, переглядав на одному диханні. Особиста оцінка 10/10.
Автору дякую!

ratbol 
Модератор HD


З нами з: 03.02.09
Востаннє: 07.12.16
Повідомлень: 1088

2012-07-09 16:27  
11FrYkT
Будь ласка, мені теж сподобався.
trofum911
З фільмом все в порядку, перевіряйте в себе.

ratbol 
Модератор HD


З нами з: 03.02.09
Востаннє: 07.12.16
Повідомлень: 1088

2012-08-18 13:08  
Реліз оновлено.
Доріжку Line замінено на доріжку з DVD.

Zeus62 
Відео Гуртом - команда HD
Відео Гуртом - команда HD


З нами з: 29.12.08
Востаннє: 16.11.16
Повідомлень: 330

2012-08-18 13:27  
Фільм дуже класний. Дякую за реліз.
Gelios 
Відео Гуртом - дизайнер
Відео Гуртом - дизайнер


З нами з: 03.09.11
Востаннє: 08.12.16
Повідомлень: 1882

2012-08-18 14:34  
ratbol написано:
Gelios і thefir — постер.

Ми ж із thefir-ом не робили один постер вдвох. Їх є аж 3:
Ось мої:
Недоторканні / 1+1 / Intouchables (2011)
Недоторканні / 1+1 / Intouchables (2011)
А ось його:
Недоторканні / 1+1 / Intouchables (2011)

Klymkiv_a 
Відео Гуртом - підтримка та поширення
Відео Гуртом - підтримка та поширення


З нами з: 04.12.11
Востаннє: 08.11.16
Повідомлень: 55

2012-08-18 17:34  
Фільм просто супер, 10/10. Раджу усім!
DеLight 
Відео Гуртом - фільмокрай
Відео Гуртом - фільмокрай


З нами з: 24.08.11
Востаннє: 17.11.16
Повідомлень: 664

2012-08-24 22:16  
Прекрасний фільм! З одного боку - повчальний і життєвий, з другого - простий і позитивний... Приємний осадок залишається після перегляду.
інфанта2009 
Новенький


З нами з: 15.04.12
Востаннє: 30.10.16
Повідомлень: 6

2012-10-08 21:28  
Фільм вартий перегляду!
Не шкодую, що подивилася))

Дякую за реліз)

skovas 
Свій


З нами з: 22.04.12
Востаннє: 02.09.16
Повідомлень: 52

2013-03-15 20:54  
Класний фільм 10/10
leroykendall 
Модератор HD


З нами з: 03.01.11
Востаннє: 20.11.16
Повідомлень: 749

2013-03-15 22:47  
Завтра транслюватимуть по 1+1. Напевно з іншою озвучкою.
ratbol 
Модератор HD


З нами з: 03.02.09
Востаннє: 07.12.16
Повідомлень: 1088

2013-03-24 10:27  
Оновлено.
Додано дубляж від 1+1 та ще одні українські субтитри.

Ганна_ 
Частий відвідувач


З нами з: 08.05.12
Востаннє: 18.07.16
Повідомлень: 48

2013-03-24 23:07  
розкішний фільм! дуже раджу подивитись.
bobikrex 
Новенький


З нами з: 05.05.13
Востаннє: 05.05.13
Повідомлень: 1

2013-05-05 18:55  
от біда, нікого на роздачі немає...

Додано через 10 хвилин 57 секунд:

Дякую, панове козаки!

Stepan2009 
VIP


З нами з: 18.09.10
Востаннє: 08.12.16
Повідомлень: 322

2014-01-12 13:40  
Фільм класний, але 15 ГБ - перебір. зробіть хтось 720p.

Додано через 24 секунди:

або бодай 1080p-mini

yuranako 
VIP


З нами з: 03.11.10
Востаннє: 08.12.16
Повідомлень: 1139

2014-01-12 13:44  
Stepan2009 написано:
але 15 ГБ - перебір. зробіть хтось 720p.

Пошуком користуйтесь, все є - http://toloka.to/t36334
Або заглядайте під спойлер "Інші релізи" внизу релізу.

Stepan2009 
VIP


З нами з: 18.09.10
Востаннє: 08.12.16
Повідомлень: 322

2014-01-14 00:15  
[quote="yuranako"]
Пошуком користуйтесь, все є - http://toloka.to/t36334
Або заглядайте під спойлер "Інші релізи" внизу релізу.

я маю на увазі 720з із дубляжем від 1+1

west cost 
Новенький


З нами з: 07.11.12
Востаннє: 09.08.16
Повідомлень: 2

2015-03-19 21:08  
ratbol
скажіть будь ласка а у вас буде викладений фільм Самба (2014рік) Omar Sy

Ваш часовий пояс: GMT + 2 Години

Нова тема   Відповісти