Завантажити та скачати торренти українською


Більше, ніж друг / The Switch (2010) 720p Ukr/Eng | Sub Eng

Нові коментарі

Нова тема   Відповісти
Автор Повідомлення
11FrYkT 
Модератор відео


З нами з: 20.02.11
Востаннє: 06.12.16
Повідомлень: 3113

2012-07-02 05:26  
Більше, ніж друг / The Switch (2010) 720p Ukr/Eng | Sub Eng

Більше, ніж друг / The Switch (2010) 720p Ukr/Eng | Sub Eng

«Менше ніж коханець»



Жанр: Комедія, Драма, Мелодрама
Країна: США



Кіностудія / кінокомпанія: Bona Fide Productions
Режисер: Джош Гордон, Уілл Спек
Актори: Дженніфер Еністон , Джейсон Бейтман , Патрік Вілсон , Джульєтт Льюїс , Каролін Давернас , Джеф Голдблюм , Тодд Луісо

Сюжет:
Кессі намагається завагітніти за допомогою штучного запліднення. Давній друг дівчини, безвідповідальний невротичний хлопець на ім'я Воллі вирішує підмінити сперму донора, видавши її за свою. Пізніше він змушений приховувати від Кессі, що є батьком дитини.


Тривалість: 01:41:23
Якість: 720p
Відео:
кодек:
розмір кадру: 1280 x 544
бітрейт: 4652 кб/с

Аудіо # 1:
мова: українська
переклад: багатоголосий закадровий
кодек: 5.1
бітрейт: 448 кб/с

Аудіо # 2:
мова: англійська
переклад: оригінал
кодек: 5.1
бітрейт: 1536 кб/с

Джерело озвучення:


Субтитри:
мова: англійська
тип: програмні (м'які)
формат: *.srt
MediaInfo
Код:
The Switch (2010) 720p.mkv
   General
      UniqueID : 221822421179668151602730225271435852756 (0xA6E171BF859199F6985BB5FF7B7A7BD4)
      Complete name : The Switch (2010) 720p.mkv
      Format : Matroska
      File size : 4.68 GiB
      Duration : 1h 41mn
      Overall bit rate : 6 607 Kbps
      Encoded date : UTC 2012-07-01 19:04:41
      Writing application : mkvmerge v4.9.1 ('Ich will') зібрано Jul 11 2011 23:53:15
      Writing library : libebml v1.2.1 + libmatroska v1.1.1
   Video #1
      ID : 1
      Format : AVC
      Format/Info : Advanced Video Codec
      Format profile : [email protected]
      Format settings, CABAC : Yes
      Format settings, ReFrames : 12 frames
      Format settings, GOP : M=1, N=32
      Codec ID : V_MPEG4/ISO/AVC
      Duration : 1h 41mn
      Bit rate : 4 652 Kbps
      Width : 1 280 pixels
      Height : 544 pixels
      Display aspect ratio : 2.35:1
      Frame rate : 23.976 fps
      Color space : YUV
      Chroma subsampling : 4:2:0
      Bit depth : 8 bits
      Scan type : Progressive
      Bits/(Pixel*Frame) : 0.279
      Stream size : 3.20 GiB (68%)
      Title : The.Switch.2010.Bluray.720p..-CHD
      Writing library : core 102 r1666 d058f37
      Encoding settings : cabac=1 / ref=12 / deblock=1:-3:-3 / analyse=0x3:0x113 / me=umh / subme=10 / psy=1 / psy_rd=1.05:0.10 / mixed_ref=1 / me_range=32 / chroma_me=1 / trellis=2 / 8x8dct=1 / cqm=2 / deadzone=21,11 / fast_pskip=0 / chroma_qp_offset=-2 / threads=6 / sliced_threads=0 / nr=0 / decimate=1 / interlaced=0 / constrained_intra=0 / bframes=6 / b_pyramid=2 / b_adapt=2 / b_bias=0 / direct=3 / weightb=1 / open_gop=0 / weightp=2 / keyint=250 / keyint_min=25 / scenecut=40 / intra_refresh=0 / rc_lookahead=40 / rc=2pass / mbtree=1 / bitrate=4652 / ratetol=1.0 / qcomp=0.60 / qpmin=10 / qpmax=51 / qpstep=4 / cplxblur=20.0 / qblur=0.5 / vbv_maxrate=50000 / vbv_bufsize=50000 / ip_ratio=1.40 / aq=1:0.80 / nal_hrd=none
      Language : English
   Audio #2
      ID : 2
      Format : AC-3
      Format/Info : Audio Coding 3
      Mode extension : CM (complete main)
      Codec ID : A_AC3
      Duration : 1h 41mn
      Bit rate mode : Constant
      Bit rate : 448 Kbps
      Channel(s) : 6 channels
      Channel positions : Front: L C R, Side: L R, LFE
      Sampling rate : 48.0 KHz
      Bit depth : 16 bits
      Compression mode : Lossy
      Stream size : 325 MiB (7%)
      Title : 5.1 @ 448 kb/s
      Language : Ukrainian
   Audio #4
      ID : 4
      Format :
      Format/Info : Digital Theater Systems
      Codec ID : A_DTS
      Duration : 1h 41mn
      Bit rate mode : Constant
      Bit rate : 1 510 Kbps
      Channel(s) : 6 channels
      Channel positions : Front: L C R, Side: L R, LFE
      Sampling rate : 48.0 KHz
      Bit depth : 24 bits
      Compression mode : Lossy
      Stream size : 1.07 GiB (23%)
   Text #3
      ID : 3
      Format : UTF-8
      Codec ID : S_TEXT/UTF8
      Codec ID/Info : UTF-8 Plain Text
      Title : 5.1 @ 1536 kb/s
      Language : English
Світлини





Джерело: &
Особиста оцінка: 0 - не дивився

За надану аудіодоріжку подяка пану Vasua95


 Трекер:    Зареєстрований   

Завантажити / скачати фільм українською



відео для новачків



 Зареєстрований:   2012-07-02 05:26
 Розмір:   4.68 GB 
 Оцінка фільму:   8.8/10 (Голосів: 10)
   
Інші релізи
   Більше, ніж друг / The Switch (2010) 3xUkr/Eng Arsenfpu  3 / 0   2.05 GB   2015-09-20 13:55 
   Більше, ніж друг / The Switch (2010) 2xUkr/Eng Breniak  2 / 0   2.32 GB   2012-12-25 23:53 
   Більше, ніж друг / The Switch (2010) antik_2008  1 / 0   1.74 GB   2010-10-23 01:46 
Ваш часовий пояс: GMT + 2 Години

Нова тема   Відповісти