Завантажити та скачати торренти українською


Хлопчик з велосипедом / Le Gamin au vélo (2011) 720p Fra | sub Ukr/Eng

Нові коментарі

Нова тема   Відповісти
Автор Повідомлення
xfsthe 
Оцифрування книг Гуртом
Оцифрування книг Гуртом


З нами з: 13.02.11
Востаннє: 01.12.16
Повідомлень: 279

2012-07-02 00:18  
Хлопчик з велосипедом / Le Gamin au vélo (2011) 720p Fra | sub Ukr/Eng

Хлопчик з велосипедом / Le Gamin au vélo (2011) 720p Fra | sub Ukr/Eng


Жанр: драма, сімейний
Країна: Франція, Італія, Бельгія



Кіностудія / кінокомпанія: Archipel 35 / Belgacom TV / Canal+ / Casa Kafka Pictures / Centre National de la Cinematographie (CNC)
Режисер: Жан-П'єр Дарденн, Люк Дарденн
Актори: Томас Доре, Сесіль де Франс, Жеремі Реньє, Егон ді Матео, Фабріціо Ронджоне, Олів'є Гурме, Клоді Дельфос, Жан-Мішель Бальтазар, Фредерік Дюссен

Сюжет:
Дванадцятирічний Сіріль живе однією думкою: знайти свого батька, який здав його в дитинстві в притулок. Хлопчик тікає з дитячого будинку, щоб розшукати зниклого батька. Його ловлять, повертають у притулок, але він знову тікає, і тут відбувається диво... Випадково Сіріль знайомиться із Самантою, яка погоджується брати його до себе на вихідні. Але прагнення батьківської любові його аж ніяк не залишає...


Тривалість: 01:27:20
Якість: 720p
Відео:
кодек:
розмір кадру: 1280 х 690
бітрейт: 4 735 кб/с
частота кадрів: 24 кадрів/c

Аудіо # 1:
мова: французька
переклад: оригінал
кодек: 5.1
бітрейт: 640 кб/с

Субтитри #1:
мова: українська by yuranako
тип: програмні (м'які)
формат: *.srt

Субтитри #2:
мова: англійська
тип: програмні (м'які)
формат: *.srt
MediaInfo

General
Unique ID : 249625727865242115143333008065338671507 (0xBBCC2A9A67565CB94269D7F38E960193)
Complete name : /media/media/Le Gamin au vélo (2011) [fre] sub[ukr,eng] 720p.mkv
Format : Matroska
Format version : Version 2
File size : 3.28 GiB
Duration : 1h 27mn
Overall bit rate : 5 376 Kbps
Movie name : Хлопчик з велосипедом / Le Gamin au vélo (2011) 720p
Encoded date : UTC 2012-06-30 23:15:19
Writing application : mkvmerge v5.1.0 ('And so it goes') built on Feb 1 2012 11:31:23
Writing library : libebml v1.2.2 + libmatroska v1.3.0

Video
ID : 1
Format : AVC
Format/Info : Advanced Video Codec
Format profile : [email protected]
Format settings, CABAC : Yes
Format settings, ReFrames : 8 frames
Codec ID : V_MPEG4/ISO/AVC
Duration : 1h 27mn
Bit rate : 4 735 Kbps
Width : 1 280 pixels
Height : 690 pixels
Display aspect ratio : 1.85:1
Frame rate : 24.000 fps
Color space : YUV
Chroma subsampling : 4:2:0
Bit depth : 8 bits
Scan type : Progressive
Bits/(Pixel*Frame) : 0.223
Stream size : 2.82 GiB (86%)
Title : Хлопчик з велосипедом / Le Gamin au vélo (2011) 720p
Writing library : core 120 r2120 0c7dab9
Encoding settings : cabac=1 / ref=8 / deblock=1:-2:-2 / analyse=0x3:0x133 / me=umh / subme=9 / psy=1 / psy_rd=1.20:0.20 / mixed_ref=1 / me_range=16 / chroma_me=1 / trellis=2 / 8x8dct=1 / cqm=0 / deadzone=21,11 / fast_pskip=1 / chroma_qp_offset=-3 / threads=6 / sliced_threads=0 / nr=0 / decimate=0 / interlaced=0 / bluray_compat=0 / constrained_intra=0 / bframes=3 / b_pyramid=2 / b_adapt=2 / b_bias=0 / direct=3 / weightb=1 / open_gop=0 / weightp=2 / keyint=250 / keyint_min=2 / scenecut=40 / intra_refresh=0 / rc_lookahead=60 / rc=2pass / mbtree=1 / bitrate=4735 / ratetol=1.0 / qcomp=0.60 / qpmin=10 / qpmax=51 / qpstep=4 / cplxblur=20.0 / qblur=0.5 / vbv_maxrate=38000 / vbv_bufsize=38000 / nal_hrd=none / ip_ratio=1.40 / aq=1:1.00
Language : French
Default : Yes
Forced : Yes

Audio
ID : 2
Format : AC-3
Format/Info : Audio Coding 3
Mode extension : CM (complete main)
Format settings, Endianness : Big
Codec ID : A_AC3
Duration : 1h 27mn
Bit rate mode : Constant
Bit rate : 640 Kbps
Channel(s) : 6 channels
Channel positions : Front: L C R, Side: L R, LFE
Sampling rate : 48.0 KHz
Bit depth : 16 bits
Compression mode : Lossy
Stream size : 400 MiB (12%)
Title : 5.1 @ 640 kbps
Language : French
Default : Yes
Forced : Yes

Text #1
ID : 3
Format : UTF-8
Codec ID : S_TEXT/UTF8
Codec ID/Info : UTF-8 Plain Text
Title : by Yuranako (hurtom.com)
Language : Ukrainian
Default : Yes
Forced : Yes

Text #2
ID : 4
Format : UTF-8
Codec ID : S_TEXT/UTF8
Codec ID/Info : UTF-8 Plain Text
Language : English
Default : No
Forced : No
Світлини:






Джерело: інше
Особиста оцінка: не дивився

Подяка за українські субтитри панові yuranako


Золотий реліз (завантажене не впливає на рейтинг)
 Трекер:    Зареєстрований   

Завантажити / скачати фільм українською



відео для новачків



 Зареєстрований:   2012-07-02 00:32
 Розмір:   3.28 GB 
 Оцінка фільму:   10/10 (Голосів: 3)
   
Інші релізи
DiGen 
Модератор HD та координатор Команди HD
Модератор HD та координатор Команди HD


З нами з: 12.11.09
Востаннє: 24.06.13
Повідомлень: 1452

2012-07-02 00:28  
Ваш часовий пояс: GMT + 2 Години

Нова тема   Відповісти