Завантажити та скачати торренти українською


Аполлон 13 / Apollo 13 (1995) 720p Ukr/Eng | Sub Eng

Нові коментарі

Нова тема   Відповісти
Автор Повідомлення
xfsthe 
Оцифрування книг Гуртом
Оцифрування книг Гуртом


З нами з: 13.02.11
Востаннє: 04.12.16
Повідомлень: 279

2012-07-01 23:26  
Аполлон 13 / Apollo 13 (1995) 720p Ukr/Eng | Sub Eng

Аполлон 13 / Apollo 13 (1995) 720p Ukr/Eng | Sub Eng


Жанр: історична драма, трилер
Країна: США



Кіностудія / кінокомпанія: Universal Pictures, Imagine Entertainment
Режисер: Рон Говард
Актори: Том Генкс, Кевін Бейкон, Біл Пекстон, Ґарі Сініс, Ед Гарріс, Кетлін Куінлан, Трейсі Рейнер, Девід Ендрюс

Сюжет:
В 1970 «Аполлон-13» мав стати третім космічним кораблем, що доставив би астронавтів на Місяць. Але вже на підльоті до цілі на кораблі сталася серйозна аварія, котра не тільки поставила хрест на висадці, але і стала небезпечною для життя екіпажу.


Тривалість: 02:19:46
Якість: 720p
Відео:
кодек:
розмір кадру: 1288 х 544
бітрейт: 4 733 кб/с
частота кадрів: 23,976 кадрів/c

Аудіо # 1:
мова: українська
переклад: багатоголосий, закадровий
кодек: 2.0
бітрейт: 192 кб/с

Аудіо # 2:
мова: англійська
переклад: оригінал
кодек: 5.1
бітрейт: 1510 кб/с

Субтитри #1:
мова: англійська
тип: програмні (м'які)
формат: *.srt
MediaInfo

General
Unique ID : 235721008370556366362976828703568624468 (0xB1563700AF562DD896C975C3C2C4FB54)
Complete name : /media/media/Apollo 13 (1995) [ukr,eng] sub[eng] 720p.mkv
Format : Matroska
Format version : Version 2
File size : 6.28 GiB
Duration : 2h 19mn
Overall bit rate : 6 436 Kbps
Movie name : Аполлон 13 / Apollo 13 (1995) 720p
Encoded date : UTC 2012-06-19 22:14:24
Writing application : mkvmerge v5.1.0 ('And so it goes') built on Feb 1 2012 11:31:23
Writing library : libebml v1.2.2 + libmatroska v1.3.0

Video
ID : 1
Format : AVC
Format/Info : Advanced Video Codec
Format profile : [email protected]
Format settings, CABAC : Yes
Format settings, ReFrames : 8 frames
Codec ID : V_MPEG4/ISO/AVC
Duration : 2h 19mn
Bit rate : 4 733 Kbps
Width : 1 280 pixels
Height : 544 pixels
Display aspect ratio : 2.35:1
Frame rate : 23.976 fps
Color space : YUV
Chroma subsampling : 4:2:0
Bit depth : 8 bits
Scan type : Progressive
Bits/(Pixel*Frame) : 0.283
Stream size : 4.50 GiB (72%)
Title : Аполлон 13 / Apollo 13 (1995) 720p
Writing library : core 88 r1471 1144615
Encoding settings : cabac=1 / ref=8 / deblock=1:-3:-3 / analyse=0x3:0x113 / me=umh / subme=9 / psy=1 / psy_rd=1.05:0.00 / mixed_ref=1 / me_range=32 / chroma_me=1 / trellis=2 / 8x8dct=1 / cqm=2 / deadzone=21,11 / fast_pskip=0 / chroma_qp_offset=-1 / threads=6 / sliced_threads=0 / nr=0 / decimate=1 / mbaff=0 / constrained_intra=0 / bframes=3 / b_pyramid=2 / b_adapt=2 / b_bias=0 / direct=3 / wpredb=1 / wpredp=2 / keyint=250 / keyint_min=25 / scenecut=40 / intra_refresh=0 / rc_lookahead=50 / rc=2pass / mbtree=1 / bitrate=4733 / ratetol=1.0 / qcomp=0.60 / qpmin=10 / qpmax=51 / qpstep=4 / cplxblur=20.0 / qblur=0.5 / vbv_maxrate=50000 / vbv_bufsize=50000 / ip_ratio=1.40 / aq=1:1.00
Language : English
Default : Yes
Forced : Yes

Audio #1
ID : 2
Format : AC-3
Format/Info : Audio Coding 3
Mode extension : CM (complete main)
Format settings, Endianness : Big
Codec ID : A_AC3
Duration : 2h 19mn
Bit rate mode : Constant
Bit rate : 192 Kbps
Channel(s) : 2 channels
Channel positions : Front: L R
Sampling rate : 48.0 KHz
Bit depth : 16 bits
Compression mode : Lossy
Delay relative to video : 450ms
Stream size : 192 MiB (3%)
Title : 2.0 @ 192 kbps
Language : Ukrainian
Default : Yes
Forced : Yes

Audio #2
ID : 3
Format :
Format/Info : Digital Theater Systems
Codec ID : A_DTS
Duration : 2h 19mn
Bit rate mode : Constant
Bit rate : 1 510 Kbps
Channel(s) : 6 channels
Channel positions : Front: L C R, Side: L R, LFE
Sampling rate : 48.0 KHz
Bit depth : 24 bits
Compression mode : Lossy
Stream size : 1.47 GiB (23%)
Title : 5.1 @ 1510 kbps
Language : English
Default : No
Forced : No

Text
ID : 4
Format : UTF-8
Codec ID : S_TEXT/UTF8
Codec ID/Info : UTF-8 Plain Text
Language : English
Default : No
Forced : No
Світлини:






Джерело: інше
Особиста оцінка: 10 - без зайвих вагань рекомендую всім!

Подяка за українську звукову доріжку панові Romczyk


Срібний реліз (на рейтинг впливає 50% завантаженого)
 Трекер:    Зареєстрований   

Завантажити / скачати фільм українською



відео для новачків



 Зареєстрований:   2012-07-01 23:26
 Розмір:   6.28 GB 
 Оцінка фільму:   9.6/10 (Голосів: 11)
   
Інші релізи
   Аполло 13 / Аполлон 13 / Apollo 13 (1995) 2xUkr/Eng | Sub Eng omm  6 / 0   2.92 GB   2015-08-26 18:53 
   Аполлон 13 / Apollo 13 (1995) 720p-mini Ukr/Eng AngryBirdsUA  2 / 0   2.41 GB   2011-11-08 22:31 
DiGen 
Модератор HD та координатор Команди HD
Модератор HD та координатор Команди HD


З нами з: 12.11.09
Востаннє: 24.06.13
Повідомлень: 1452

2012-07-02 00:30  
xfsthe написано:
core 88 r1471
.. може кращий знайдеться...
xfsthe 
Оцифрування книг Гуртом
Оцифрування книг Гуртом


З нами з: 13.02.11
Востаннє: 04.12.16
Повідомлень: 279

2012-07-02 00:37  
DiGen написано:

xfsthe написано:
core 88 r1471
.. може кращий знайдеться...

я не розбираюся у цих параметрах... виклав той ріп, що знайшов колись в інтернеті

Ваш часовий пояс: GMT + 2 Години

Нова тема   Відповісти