Завантажити та скачати торренти українською


Іп Мен 2 / Yip Man 2 / Ip Man 2 (2010) 720p Ukr/Chi | Sub Eng

Нові коментарі

Нова тема   Відповісти
Автор Повідомлення
chidorisaske 
Свій


З нами з: 05.06.11
Востаннє: 20.11.16
Повідомлень: 84

2012-07-01 15:27  
Іп Мен 2 / Yip Man 2 / Ip Man 2 (2010) 720p Ukr/Chi | Sub Eng

Іп Мен 2 / Yip Man 2 / Ip Man 2 (2010) 720p Ukr/Chi | Sub Eng


Жанр: біографічний, історичний, драма, бойовик
Країна: Гонконг, Китай



Кіностудія / кінокомпанія: Mandarin Films Co. Ltd.
Режисер: Вілсон Іп / Wilson Yip
Актори: Донні Єн / Donnie Yen, Саймон Ям / Simon Yam, Сю-Вонг Фан / Siu-Wong Fan, Ка Тунг Лам / Ka Tung Lam, Ю Хін / Yu Xing, Ю-Нам Вонг / You-Nam Wong, Чен Зі Хуі / Chen Zhi Hui, та інші.

Сюжет:
1949 року в Гонконзі Іп Мен вирішує відкрити гурток бойових мистецтв і просуває свій стиль (Він Чунь). Господар іншого гуртка, практикуючий стиль Хун Гар, вважає стиль Іп Мена дівчачим. Сусідство 2-х вчителів стає напруженим. Але, загальний ворог, в особі європейського боксера, об'єднує їх.


Тривалість: 01:47:49
Якість: (Ріп CHD)
Відео:
кодек:
розмір кадру: 1280х544
бітрейт: 7175 кб/с

Аудіо # 1:
мова: українська
переклад: багатоголосий закадровий
кодек: 5.1
бітрейт: 448 кб/с

Аудіо # 2:
мова: китайська
переклад: оригінал
кодек: 5.1
бітрейт: 1510 кб/с

Субтитри:
мова: англійська
тип: програмні (м'які)
формат: *.srt

Джерело озвучення:
ТО "Цікава ідея" на замовлення Hurtom.com
MediaInfo
Format : Matroska
File size : 6.88 GiB
Duration : 1h 47mn
Overall bit rate : 9 134 Kbps
Encoded date : UTC 2012-07-01 12:29:02
Writing application : mkvmerge v5.6.0 ('Kenya Kane') built on May 27 2012 16:44:04
Writing library : libebml v1.2.3 + libmatroska v1.3.0

Video
ID : 1
Format : AVC
Format/Info : Advanced Video Codec
Format profile : [email protected]
Format settings, CABAC : Yes
Format settings, ReFrames : 8 frames
Codec ID : V_MPEG4/ISO/AVC
Duration : 1h 47mn
Bit rate : 7 175 Kbps
Width : 1 280 pixels
Height : 544 pixels
Display aspect ratio : 2.35:1
Frame rate : 23.976 fps
Color space : YUV
Chroma subsampling : 4:2:0
Bit depth : 8 bits
Scan type : Progressive
Bits/(Pixel*Frame) : 0.430
Stream size : 5.27 GiB (77%)
Title : Іп Мен 2 / Ip Man 2 (2010) [Hurtom]
Writing library : core 84 r1416 fcf70c2
Encoding settings : cabac=1 / ref=8 / deblock=1:-3:-3 / analyse=0x3:0x113 / me=umh / subme=9 / psy=1 / psy_rd=1.0:0.1 / mixed_ref=1 / me_range=32 / chroma_me=1 / trellis=2 / 8x8dct=1 / cqm=2 / deadzone=21,11 / fast_pskip=0 / chroma_qp_offset=-2 / threads=6 / sliced_threads=0 / nr=0 / decimate=1 / mbaff=0 / constrained_intra=0 / bframes=3 / b_pyramid=2 / b_adapt=2 / b_bias=0 / direct=3 / wpredb=1 / wpredp=2 / keyint=250 / keyint_min=25 / scenecut=40 / intra_refresh=0 / rc_lookahead=40 / rc=2pass / mbtree=1 / bitrate=7175 / ratetol=1.0 / qcomp=0.60 / qpmin=10 / qpmax=51 / qpstep=4 / cplxblur=20.0 / qblur=0.5 / vbv_maxrate=50000 / vbv_bufsize=50000 / ip_ratio=1.40 / aq=1:0.80

Audio #1
ID : 2
Format : AC-3
Format/Info : Audio Coding 3
Mode extension : CM (complete main)
Codec ID : A_AC3
Duration : 1h 47mn
Bit rate mode : Constant
Bit rate : 448 Kbps
Channel(s) : 6 channels
Channel positions : Front: L C R, Side: L R, LFE
Sampling rate : 48.0 KHz
Bit depth : 16 bits
Compression mode : Lossy
Stream size : 346 MiB (5%)
Title : ТО "Цікава ідея" на замовлення Hurtom.com
Language : Ukrainian

Audio #2
ID : 3
Format :
Format/Info : Digital Theater Systems
Codec ID : A_DTS
Duration : 1h 47mn
Bit rate mode : Constant
Bit rate : 1 510 Kbps
Channel(s) : 6 channels
Channel positions : Front: L C R, Side: L R, LFE
Sampling rate : 48.0 KHz
Bit depth : 24 bits
Compression mode : Lossy
Stream size : 1.14 GiB (17%)
Title : Original
Language : Chinese

Text
ID : 4
Format : UTF-8
Codec ID : S_TEXT/UTF8
Codec ID/Info : UTF-8 Plain Text
Language : English
Скріншоти







Джерело:
Постер від bilenkuyboy


Авторський реліз (завантажувати можна без реєстрації)
 Трекер:    Зареєстрований   

Завантажити / скачати фільм українською



відео для новачків



 Зареєстрований:   2012-07-01 15:27
 Розмір:   6.88 GB 
 Оцінка фільму:   9.5/10 (Голосів: 19)
   
Інші релізи
   Іп Мен 2 / Yip Man 2 / Ip Man 2 (2010) Ramirezz  2 / 0   1.45 GB   2014-12-06 23:33 
   Іп Мен 2 / Yip Man 2 / Ip Man 2 (2010) 1080p Ukr/Chi | Sub Eng 11FrYkT  7 / 0   11.27 GB   2012-07-01 09:14 
   Іп Мен 2 / Yip Man 2 / Ip Man 2 (2010) 720p-mini Ukr/Chi Anonymous  3 / 0   2.9 GB   2012-06-30 11:34 
   Іп Мен 2 / Yip Man 2 / Ip Man 2 (2010) Ukr/Chi Цікава ідея  11 / 0   2.18 GB   2012-06-30 10:20 
Kanelo 
Свій


З нами з: 22.10.09
Востаннє: 08.12.16
Повідомлень: 132

2013-02-25 03:50  
Фільм класний, але звукова доріжка дубляжу надто приглушена...
Ваш часовий пояс: GMT + 2 Години

Нова тема   Відповісти