Завантажити та скачати торренти українською


Іл Маре / Il Mare / 시월애 (2000) KOR | sub Ukr

Нові коментарі

Нова тема   Відповісти
Автор Повідомлення
destiny 
Свій


З нами з: 09.04.10
Востаннє: 09.11.13
Повідомлень: 92

2012-07-01 12:22  
Іл Маре / Il Mare / 시월애 (2000) KOR | sub Ukr

Іл Маре / Il Mare / 시월애 (2000) KOR | sub Ukr


Жанр: корейська драма, мелодрама, різдв’яна блюз-містерія, фантастика, артхауз
Країна: Південна Корея



Кіностудія / кінокомпанія: Sidus
Режисер: Лі Хйон Син (이현승)
Актори: Джун Джи Х’юн (전지현), Лі Чон Че (정재), Кім Му-Санґ (김무생), Джо Сюн-Ен (조승연)

Ще один постер:
Сюжет:
Коли ти чогось прагнеш, ти у’являєш собі це бажання, як ще одну недосяжну планку в своєму житті, яку тобі вкрай необхідно перестрибнути, досягти і покорити. Іноді хочеться, щоб хтось тебе підсадив. Коли ж ти добираєшся до цієї планки і тобі хтось допомага перестрибнути її, ти рано чи пізно розумієш, що справжнім твоїм бажанням було не перестрибнути цю планку і виконати своє бажання, а знайти людину... Людину, яка не може стати просто інструментом твого бажання. Людину, що стане твоїм життям.

Вона мріяла... Він шукав... Їх життя змінила скринька.
Один листок паперу і духу поцілунок на ньому, яким є письмо, розірвав часові проміжки, а щирість почуттів подолала простір, зробивши можливим неможливе. Все інше зробила самотність. Адже "лише в тісному зв’язку з самотністю, людина пізнає себе".

___________________________________________
Кіно про людей, які живуть, а не просто існують.
Переклад діалектом смаженого пінгвіна - де мат, відправили в "ад".



Тривалість: 01:36:00
Якість:
Відео:
кодек:
розмір кадру: 640 х 368
бітрейт: 877 кб/с

Аудіо:
мова: корейська
переклад: оригінал
кодек: MP3
бітрейт: 128 кб/с

Субтитри:
мова: українська (адаптований переклад)
тип: програмні (м'які)
формат: *.srt

Скріншоти





Джерело:Destinyua project
Особиста оцінка: 10 - без зайвих вагань рекомендую всім!


Золотий реліз (завантажене не впливає на рейтинг)
 Трекер:    Зареєстрований   

Завантажити / скачати фільм українською



відео для новачків



 Зареєстрований:   2012-07-01 12:22
 Розмір:   700 MB 
 Оцінка фільму:   10/10 (Голосів: 4)
 Присвячую Таньці Т. та Гуртом-толоці
   
destiny 
Свій


З нами з: 09.04.10
Востаннє: 09.11.13
Повідомлень: 92

2012-07-01 12:56  
Реліз редагується...

Додано через 2 хвилини 39 секунд:

Попередні релізи

Я повернусь до тебе з вітром / Windstruck / 내 여자친구를 소개합니다 (2004) KOR | sub Ukr
http://toloka.to/t36624
Чувак нізвідки / 아저씨 / The man from Nowhere (2010) AVC Kor | sub Ukr
http://toloka.to/t33204
Покинута Зая / Usagi Doroppu / うさぎドロップ / (3 з 11) (2011) AVC Jap | sub Ukr
http://toloka.to/t29258
71 у вогні / 71: Into the Fire / Pohwasogeuro (2010) KOR | sub UKR
http://toloka.to/t27251
Вона на завданні / She's on Duty / Jambok-geunmu / 잠복근무 (2005) Kor | sub Ukr
http://toloka.to/t27060
Шірі / Shiri / 쉬리 (1999) KOR, ENG| sub UKR
http://toloka.to/t28580
Пастка / Dragnet girl / Hijosen no onna / 非常線の女 (1933) Jap | sub Ukr
http://toloka.to/t27250
Дівчина Сніжинка / The Snow Woman / Kaidan yukijorô (1968) Jap | sub Ukr
http://toloka.to/t27252
Якось в Сеулі або Хлопці не плачуть / Once Upon a Time in Seoul /소년은 울지 않는다 (2007) KOR | sub Ukr
http://toloka.to/t29631
Додано через 3 хвилини 9 секунд:
ТролінгботМедіяінфодот
Format : AVI
Format/Info : Audio Video Interleave
File size : 700 MiB
Duration : 1h 36mn
Overall bit rate mode : Variable
Overall bit rate : 1 018 Kbps
Writing application : VirtualDubMod 1.5.4.1 (build 2178/release)
Writing library : VirtualDubMod build 2178/release

Video
ID : 0
Format : MPEG-4 Visual
Format profile : Advanced [email protected]
Format settings, BVOP : 1
Format settings, QPel : No
Format settings, GMC : No warppoints
Format settings, Matrix : Custom
Codec ID :
Codec ID/Hint :
Duration : 1h 36mn
Bit rate : 877 Kbps
Width : 640 pixels
Height : 368 pixels
Display aspect ratio : 1.739
Frame rate : 23.976 fps
Color space : YUV
Chroma subsampling : 4:2:0
Bit depth : 8 bits
Scan type : Progressive
Compression mode : Lossy
Bits/(Pixel*Frame) : 0.155
Stream size : 603 MiB (86%)
Writing library : 1.0.2 (UTC 2004-08-29)

Audio
ID : 1
Format : MPEG Audio
Format version : Version 1
Format profile : Layer 3
Mode : Joint stereo
Mode extension : MS Stereo
Codec ID : 55
Codec ID/Hint : MP3
Duration : 1h 36mn
Bit rate mode : Variable
Bit rate : 128 Kbps
Channel(s) : 2 channels
Sampling rate : 48.0 KHz
Compression mode : Lossy
Stream size : 88.2 MiB (13%)
Alignment : Aligned on interleaves
Interleave, duration : 24 ms (0.58 video frame)
Interleave, preload duration : 493 ms
Writing library : LAME3.90.
Encoding settings : -m j -V 4 -q 2 -lowpass 17.6 --abr 128
Language : Korean
[/center]
Додано через 1 хвилину 29 секунд:

Хай всім гуртомівцям!
Прошу підтримати мій 10 ювілейний реліз.
Дякую всім за допомогу і підтримку в моїх починаннях.

HetmanNet 
VIP


З нами з: 20.03.09
Востаннє: 04.12.16
Повідомлень: 426

2012-07-01 13:04  
Було би добре його озвучити.. гарний фільм..
destiny 
Свій


З нами з: 09.04.10
Востаннє: 09.11.13
Повідомлень: 92

2012-07-01 15:56  
Таки-так
destiny 
Свій


З нами з: 09.04.10
Востаннє: 09.11.13
Повідомлень: 92

2012-07-02 20:31  
В будні та суботу з 21год по 00год роздаю
У неділю з 10 ранку і до 00год.

JF-X 
Новенький


З нами з: 28.08.10
Востаннє: 02.12.16
Повідомлень: 15

2013-06-15 14:14  
Встаньте хто-небудь на відвантаження.
Ваш часовий пояс: GMT + 2 Години

Нова тема   Відповісти