Завантажити та скачати торренти українською


Іп Мен 2 / Yip Man 2 / Ip Man 2 (2010) 1080p Ukr/Chi | Sub Eng

Нові коментарі

Нова тема   Відповісти
Автор Повідомлення
11FrYkT 
Модератор відео


З нами з: 20.02.11
Востаннє: 09.12.16
Повідомлень: 3133

2012-07-01 09:14  
Іп Мен 2 / Yip Man 2 / Ip Man 2 (2010) 1080p Ukr/Chi | Sub Eng

Іп Мен 2 / Yip Man 2 / Ip Man 2 (2010) 1080p Ukr/Chi | Sub Eng


Жанр: біографічний, історичний, драма, бойовик
Країна: Гонконг, Китай



Кіностудія / кінокомпанія: Mandarin Films Co. Ltd.
Режисер: Вілсон Іп / Wilson Yip
Актори: Донні Єн / Donnie Yen, Саймон Ям / Simon Yam, Сю-Вонг Фан / Siu-Wong Fan, Ка Тунг Лам / Ka Tung Lam, Ю Хін / Yu Xing, Ю-Нам Вонг / You-Nam Wong, Чен Зі Хуі / Chen Zhi Hui, та інші.

Сюжет:
1949 року в Гонконзі Іп Мен вирішує відкрити гурток бойових мистецтв і просуває свій стиль (Він Чунь). Господар іншого гуртка, практикуючий стиль Хун Гар, вважає стиль Іп Мена дівчачим. Сусідство 2-х вчителів стає напруженим. Але, загальний ворог, в особі європейського боксера, об'єднує їх.


Тривалість: 01:47:49
Якість:
Відео:
кодек:
розмір кадру: 1920 x 816
бітрейт: 13 Mб/с

Аудіо # 1:
мова: українська
переклад: багатоголосий закадровий
кодек: 5.1
бітрейт: 448 кб/с

Аудіо # 2:
мова: китайська
переклад: оригінал
кодек: 5.1
бітрейт: 1536 кб/с

Джерело озвучення:
ТО "Цікава ідея" на замовлення Hurtom.com

Субтитри:
мова: англійська
тип: програмні (м'які)
формат: *.srt
MediaInfo
Код:
Ip Man 2 (2010) 1080p.mkv
   General
      UniqueID : 244529951110603956217642363266025477651 (0xB7F6C169635F4A5DBD3E49349C795613)
      Complete name : Ip Man 2 (2010) 1080p.mkv
      Format : Matroska
      File size : 11.3 GiB
      Duration : 1h 47mn
      Overall bit rate : 15.0 Mbps
      Encoded date : UTC 2012-06-30 17:19:33
      Writing application : mkvmerge v4.9.1 ('Ich will') зібрано Jul 11 2011 23:53:15
      Writing library : libebml v1.2.1 + libmatroska v1.1.1
   Video #1
      ID : 1
      Format : AVC
      Format/Info : Advanced Video Codec
      Format profile : [email protected]
      Format settings, CABAC : Yes
      Format settings, ReFrames : 4 frames
      Format settings, GOP : M=1, N=5
      Codec ID : V_MPEG4/ISO/AVC
      Duration : 1h 47mn
      Bit rate : 13.0 Mbps
      Width : 1 920 pixels
      Height : 816 pixels
      Display aspect ratio : 2.35:1
      Frame rate : 23.976 fps
      Color space : YUV
      Chroma subsampling : 4:2:0
      Bit depth : 8 bits
      Scan type : Progressive
      Bits/(Pixel*Frame) : 0.346
      Stream size : 9.57 GiB (85%)
      Writing library : core 80 r1376M 3feaec2
      Encoding settings : cabac=1 / ref=4 / deblock=1:-3:-3 / analyse=0x3:0x113 / me=umh / subme=9 / psy=1 / psy_rd=1.1:0.1 / mixed_ref=1 / me_range=32 / chroma_me=1 / trellis=2 / 8x8dct=1 / cqm=0 / deadzone=21,11 / fast_pskip=0 / chroma_qp_offset=-5 / threads=6 / sliced_threads=0 / nr=0 / decimate=0 / mbaff=0 / constrained_intra=0 / bframes=6 / b_pyramid=2 / b_adapt=2 / b_bias=0 / direct=3 / wpredb=1 / wpredp=2 / keyint=250 / keyint_min=25 / scenecut=40 / rc_lookahead=48 / rc=2pass / mbtree=1 / bitrate=13011 / ratetol=1.0 / qcomp=0.60 / qpmin=10 / qpmax=51 / qpstep=4 / cplxblur=20.0 / qblur=0.5 / ip_ratio=1.40 / aq=1:0.80
      Language : English
   Audio #2
      ID : 2
      Format : AC-3
      Format/Info : Audio Coding 3
      Mode extension : CM (complete main)
      Codec ID : A_AC3
      Duration : 1h 47mn
      Bit rate mode : Constant
      Bit rate : 448 Kbps
      Channel(s) : 6 channels
      Channel positions : Front: L C R, Side: L R, LFE
      Sampling rate : 48.0 KHz
      Bit depth : 16 bits
      Compression mode : Lossy
      Stream size : 346 MiB (3%)
      Title : 5.1 @ 448 Kbps
      Language : Ukrainian
   Audio #3
      ID : 3
      Format :
      Format/Info : Digital Theater Systems
      Codec ID : A_DTS
      Duration : 1h 47mn
      Bit rate mode : Constant
      Bit rate : 1 510 Kbps
      Channel(s) : 6 channels
      Channel positions : Front: L C R, Side: L R, LFE
      Sampling rate : 48.0 KHz
      Bit depth : 24 bits
      Compression mode : Lossy
      Stream size : 1.14 GiB (10%)
      Title : 5.1 @ 1536 Kbps
      Language : Chinese
   Text #4
      ID : 4
      Format : UTF-8
      Codec ID : S_TEXT/UTF8
      Codec ID/Info : UTF-8 Plain Text
      Title : English
      Language : English
Світлини





Джерело: &
Особиста оцінка: 8 - мені сподобалося


Авторський реліз (завантажувати можна без реєстрації)
 Трекер:    Зареєстрований   

Завантажити / скачати фільм українською



відео для новачків



 Зареєстрований:   2012-07-01 09:14
 Розмір:   11.27 GB 
 Оцінка фільму:   8.3/10 (Голосів: 16)
   
Інші релізи
   Іп Мен 2 / Yip Man 2 / Ip Man 2 (2010) Ramirezz  2 / 0   1.45 GB   2014-12-06 23:33 
   Іп Мен 2 / Yip Man 2 / Ip Man 2 (2010) 720p Ukr/Chi | Sub Eng chidorisaske  2 / 1   6.88 GB   2012-07-01 15:27 
   Іп Мен 2 / Yip Man 2 / Ip Man 2 (2010) 720p-mini Ukr/Chi Anonymous  3 / 0   2.9 GB   2012-06-30 11:34 
   Іп Мен 2 / Yip Man 2 / Ip Man 2 (2010) Ukr/Chi Цікава ідея  8 / 0   2.18 GB   2012-06-30 10:20 
okzdp 
Поважний учасник


З нами з: 27.05.09
Востаннє: 09.12.16
Повідомлень: 209

2012-07-02 20:09  
Класний фільм!
Дякую!

11FrYkT 
Модератор відео


З нами з: 20.02.11
Востаннє: 09.12.16
Повідомлень: 3133

2012-07-02 20:11  
okzdp , будь ласка
nightlover 
Новенький


З нами з: 20.07.12
Востаннє: 01.02.14
Повідомлень: 5

2012-07-20 11:34  
postariv sammo haung. Ale yak zavzhdy molodec
HetmanNet 
VIP


З нами з: 20.03.09
Востаннє: 08.12.16
Повідомлень: 429

2016-04-02 13:36  
Вже вийшов Yip Man 3 у 2015 році, чи планується його озвучка українською мовою?
Ваш часовий пояс: GMT + 2 Години

Нова тема   Відповісти