Завантажити та скачати торренти українською


Нокаут / Haywire (2011) 720p Ukr/Eng | Sub Eng

Нові коментарі

Нова тема   Відповісти
Автор Повідомлення
11FrYkT 
Модератор відео


З нами з: 20.02.11
Востаннє: 11.12.16
Повідомлень: 3141

2012-06-30 15:44  
Нокаут / Haywire (2011) 720p Ukr/Eng | Sub Eng

Нокаут / Haywire (2011) 720p Ukr/Eng | Sub Eng

«Їй не залишили вибору»



Жанр: екшн, трилер
Країна: США, Ірландія



Кіностудія / кінокомпанія: Relativity Media, Bord Scannan na hEireann / Irish Film Board
Режисер: Стівен Содерберг / Steven Soderbergh
Актори: Джина Карано / Gina Carano, Майкл Анґарано / Michael Angarano, Чаннінг Татум / Channing Tatum, Деббі Лінн Росс / Debby Lynn Ross, Майкл Дуглас / Michael Douglas, Антоніо Бандерас / Antonio Banderas, Еван МакҐреґор / Ewan McGregor, Джуліан Алкараз / Julian Alcaraz, Едді Джей Фернандез / Eddie J. Fernandez, Ллуїс Ботелла Понт / Lluis Botella Pont, Аарон Коен / Aaron Cohen, Максиміно Арсінєга / Maximino Arciniega, Ентоні Брендон Bонг / Anthony Brandon Wong, Майкл Фассбендер / Michael Fassbender, Джеймс Флінн / James Flynn

Сюжет:
Меллорі Кейн — секретний спецагент. Вона молода, розумна і красива. Час від часу шеф міжнародної спецслужби Кеннет викликає її для виконання завдань, не завжди санкційованих урядом. Але після провалу низки операцій Меллорі усвідомлює, що вона пішак у подвійній грі. Тепер їй потрібно використовувати весь свій талант і досвід, щоб сховатися від міжнародного розшуку, захистити свою сім'ю і помститися за зраду ...


Тривалість: 01:32:52
Якість: 720p
Відео:
кодек:
розмір кадру: 1280 x 528
бітрейт: 5225 кб/с

Аудіо # 1:
мова: українська
переклад: багатоголосий закадровий(псевдо дубляж)
кодек: 2.0
бітрейт: 192 кб/с
Озвучено на замовлення Aurora Distribution

Аудіо # 2:
мова: англійська
переклад: оригінал
кодек: 5.1
бітрейт: 1536 кб/с

Субтитри :
мова: англійська
тип: програмні (м'які)
формат: *.srt
MediaInfo
Код:
Haywire (2011) 720p.mkv
   General
      UniqueID : 236197830539259082524241013270703828159 (0xB1B20C2691288E10A9BC44FABD64ECBF)
      Complete name : Haywire (2011) 720p.mkv
      Format : Matroska
      File size : 4.49 GiB
      Duration : 1h 32mn
      Overall bit rate : 6 928 Kbps
      Encoded date : UTC 2012-06-30 13:25:44
      Writing application : mkvmerge v4.9.1 ('Ich will') зібрано Jul 11 2011 23:53:15
      Writing library : libebml v1.2.1 + libmatroska v1.1.1
   Video #1
      ID : 1
      Format : AVC
      Format/Info : Advanced Video Codec
      Format profile : [email protected]
      Format settings, CABAC : Yes
      Format settings, ReFrames : 5 frames
      Codec ID : V_MPEG4/ISO/AVC
      Duration : 1h 32mn
      Bit rate : 5 225 Kbps
      Width : 1 280 pixels
      Height : 528 pixels
      Display aspect ratio : 2.40:1
      Frame rate : 23.976 fps
      Color space : YUV
      Chroma subsampling : 4:2:0
      Bit depth : 8 bits
      Scan type : Progressive
      Bits/(Pixel*Frame) : 0.322
      Stream size : 3.30 GiB (73%)
      Writing library : core 122 r2184 5c85e0a
      Encoding settings : cabac=1 / ref=5 / deblock=1:0:0 / analyse=0x3:0x133 / me=umh / subme=7 / psy=1 / psy_rd=1.00:0.00 / mixed_ref=1 / me_range=16 / chroma_me=1 / trellis=1 / 8x8dct=1 / cqm=0 / deadzone=21,11 / fast_pskip=0 / chroma_qp_offset=-2 / threads=12 / sliced_threads=0 / nr=0 / decimate=1 / interlaced=0 / bluray_compat=0 / constrained_intra=0 / bframes=3 / b_pyramid=2 / b_adapt=1 / b_bias=0 / direct=1 / weightb=1 / open_gop=0 / weightp=2 / keyint=250 / keyint_min=23 / scenecut=40 / intra_refresh=0 / rc_lookahead=40 / rc=2pass / mbtree=1 / bitrate=5225 / ratetol=1.0 / qcomp=0.60 / qpmin=0 / qpmax=69 / qpstep=4 / cplxblur=20.0 / qblur=0.5 / ip_ratio=1.40 / aq=1:1.00
      Language : English
   Audio #2
      ID : 2
      Format : AC-3
      Format/Info : Audio Coding 3
      Mode extension : CM (complete main)
      Codec ID : A_AC3
      Duration : 1h 32mn
      Bit rate mode : Constant
      Bit rate : 192 Kbps
      Channel(s) : 2 channels
      Channel positions : Front: L R
      Sampling rate : 48.0 KHz
      Bit depth : 16 bits
      Compression mode : Lossy
      Stream size : 128 MiB (3%)
      Title : 2.0 @ 192 kbps
      Language : Ukrainian
   Audio #3
      ID : 3
      Format :
      Format/Info : Digital Theater Systems
      Codec ID : A_DTS
      Duration : 1h 32mn
      Bit rate mode : Constant
      Bit rate : 1 510 Kbps
      Channel(s) : 6 channels
      Channel positions : Front: L C R, Side: L R, LFE
      Sampling rate : 48.0 KHz
      Bit depth : 24 bits
      Compression mode : Lossy
      Stream size : 1 003 MiB (22%)
      Title : 5.1 @ 1536 kbps
      Language : English
   Text #4
      ID : 4
      Format : UTF-8
      Codec ID : S_TEXT/UTF8
      Codec ID/Info : UTF-8 Plain Text
      Language : English
Світлини




Джерело: &
Особиста оцінка: 8 - мені сподобалося


 Трекер:    Зареєстрований   

Завантажити / скачати фільм українською



відео для новачків



 Зареєстрований:   2012-06-30 15:44
 Розмір:   4.49 GB 
 Оцінка фільму:   8.3/10 (Голосів: 7)
   
Інші релізи
   Нокаут / Haywire (2011) AVC Ukr/Eng AngryBirdsUA  3 / 0   2.01 GB   2012-07-04 14:55 
   Нокаут / Haywire (2011) Ukr/Eng | Sub Eng karvai0  2 / 0   1.58 GB   2012-06-27 20:56 
Givi 
Модератор відео


З нами з: 25.02.08
Востаннє: 08.12.16
Повідомлень: 2862

2012-07-02 16:38  
Яке джерело відео?
11FrYkT 
Модератор відео


З нами з: 20.02.11
Востаннє: 11.12.16
Повідомлень: 3141

2012-07-02 17:25  
Givi , воно вказане, але система не відображає.
Відео з Руторга

Givi 
Модератор відео


З нами з: 25.02.08
Востаннє: 08.12.16
Повідомлень: 2862

2012-07-02 17:37  
11FrYkT написано:

Givi , воно вказане, але система не відображає.
Відео з Руторга

Зрозумів.

C4ebyrek 
Новенький


З нами з: 01.01.13
Востаннє: 07.12.16
Повідомлень: 18

2015-10-07 20:07  
Роздайте, будь ласка!)
Ваш часовий пояс: GMT + 2 Години

Нова тема   Відповісти