Завантажити та скачати торренти українською


Рудий пес / Red Dog (2011) 720p Ukr / Eng | sub Ukr / Eng

Нові коментарі

Нова тема   Відповісти
Автор Повідомлення
11FrYkT 
Модератор відео


З нами з: 20.02.11
Востаннє: 10.12.16
Повідомлень: 3135

2012-06-30 14:12  
Рудий пес / Red Dog (2011) 720p Ukr / Eng | sub Ukr / Eng

Рудий пес / Red Dog (2011) 720p Ukr / Eng | sub Ukr / Eng


Жанр: сімейний, драма, історичний, комедія, пригодницький
Країна: Австралія



Кіностудія / кінокомпанія: Endymion Films, ScreenWest, Woss Group
Режисер: Крів Стендерс / Kriv Stenders
Актори: Джош Лукас / Josh Lucas, Рейчел Тейлор / Rachael Taylor, Кіша Касл-Хьюз / Keisha Castle-Hughes, Ноа Тейлор / Noah Taylor, Люк Форд / Luke Ford, Білл Хантер / Bill Hunter, Koko

Сюжет:
Фільм базується на реальних подіях.
У далекому шахтарському містечку, де живуть суворі і не дуже товариські люди, одного разу з'являється енергійний рудий пес з породи Келпі. Тільки йому під силу розворушити провінційне сонне царство. Рудий не підкоряється нікому, але його люблять усі. За допомогою невтомного пса багатьом поселенцям судилося знайти друзів, щастя, надію і радість. А деяким - знайти кохання всього свого життя.


Тривалість: 01:32:19
Якість: 720p
Відео:
кодек:
розмір кадру: 1280 Х 544
бітрейт: 5271 кб/с

Аудіо # 1:
мова: українська
переклад: одноголосий закадровий (BOOGud(Ursulyak)[UAVoice]) BOOGud
кодек: 2.0
бітрейт: 192 кб/с

Аудіо # 2:
мова: англійська
переклад: оригінал
кодек: 5.1
бітрейт: 1536 кб/с

Субтитри #1:
мова: українська
тип: програмні (м'які)
формат: *.srt

Субтитри #2:
мова: англійська
тип: програмні (м'які)
формат: *.srt
MediaInfo
Код:
Red Dog (2011) 720p.mkv
   General
      UniqueID : 220099378250831568108829976532971217182 (0xA595992C3F9F64B6A41DF36BA3D8E11E)
      Complete name : Red Dog (2011) 720p.mkv
      Format : Matroska
      File size : 4.50 GiB
      Duration : 1h 32mn
      Overall bit rate : 6 973 Kbps
      Movie name : Ryzhij.pes.D..720p
      Encoded date : UTC 2012-06-30 11:49:09
      Writing application : mkvmerge v4.9.1 ('Ich will') зібрано Jul 11 2011 23:53:15
      Writing library : libebml v1.2.1 + libmatroska v1.1.1
   Video #1
      ID : 1
      Format : AVC
      Format/Info : Advanced Video Codec
      Format profile : [email protected]
      Format settings, CABAC : Yes
      Format settings, ReFrames : 5 frames
      Codec ID : V_MPEG4/ISO/AVC
      Duration : 1h 32mn
      Bit rate : 5 271 Kbps
      Width : 1 280 pixels
      Height : 544 pixels
      Display aspect ratio : 2.35:1
      Frame rate : 23.976 fps
      Color space : YUV
      Chroma subsampling : 4:2:0
      Bit depth : 8 bits
      Scan type : Progressive
      Bits/(Pixel*Frame) : 0.316
      Stream size : 3.31 GiB (74%)
      Title : Ryzhij.pes.D..720p
      Writing library : core 119 r2106 07efeb4
      Encoding settings : cabac=1 / ref=5 / deblock=1:0:0 / analyse=0x3:0x133 / me=umh / subme=8 / psy=1 / psy_rd=1.00:0.00 / mixed_ref=1 / me_range=16 / chroma_me=1 / trellis=1 / 8x8dct=1 / cqm=0 / deadzone=21,11 / fast_pskip=0 / chroma_qp_offset=-2 / threads=12 / sliced_threads=0 / nr=0 / decimate=1 / interlaced=0 / bluray_compat=0 / constrained_intra=0 / bframes=3 / b_pyramid=2 / b_adapt=1 / b_bias=0 / direct=1 / weightb=1 / open_gop=0 / weightp=2 / keyint=250 / keyint_min=25 / scenecut=40 / intra_refresh=0 / rc_lookahead=40 / rc=2pass / mbtree=1 / bitrate=5271 / ratetol=1.0 / qcomp=0.60 / qpmin=0 / qpmax=69 / qpstep=4 / cplxblur=20.0 / qblur=0.5 / ip_ratio=1.40 / aq=1:1.00
      Language : English
   Audio #2
      ID : 2
      Format : AC-3
      Format/Info : Audio Coding 3
      Mode extension : CM (complete main)
      Codec ID : A_AC3
      Duration : 1h 32mn
      Bit rate mode : Constant
      Bit rate : 192 Kbps
      Channel(s) : 2 channels
      Channel positions : Front: L R
      Sampling rate : 48.0 KHz
      Bit depth : 16 bits
      Compression mode : Lossy
      Stream size : 127 MiB (3%)
      Title : 2.0 @ 192 kbps
      Language : Ukrainian
   Audio #3
      ID : 3
      Format :
      Format/Info : Digital Theater Systems
      Codec ID : A_DTS
      Duration : 1h 32mn
      Bit rate mode : Constant
      Bit rate : 1 510 Kbps
      Channel(s) : 6 channels
      Channel positions : Front: L C R, Side: L R, LFE
      Sampling rate : 48.0 KHz
      Bit depth : 16 bits
      Compression mode : Lossy
      Stream size : 997 MiB (22%)
      Title : 5.1 @ 1536 kbps
      Language : English
   Text #4
      ID : 4
      Format : UTF-8
      Codec ID : S_TEXT/UTF8
      Codec ID/Info : UTF-8 Plain Text
      Language : Ukrainian
   Text #5
      ID : 5
      Format : UTF-8
      Codec ID : S_TEXT/UTF8
      Codec ID/Info : UTF-8 Plain Text
      Language : English
Світлини




Джерело: &
Особиста оцінка: 8 - мені сподобалося


Золотий реліз (завантажене не впливає на рейтинг)
 Трекер:    Зареєстрований   

Завантажити / скачати фільм українською



відео для новачків



 Зареєстрований:   2012-06-30 14:12
 Розмір:   4.5 GB 
 Оцінка фільму:   9.8/10 (Голосів: 15)
   
Інші релізи
   Рудий пес / Red Dog (2011) Ukr/Eng | Sub Ukr/Eng karvai0  10 / 2   1.7 GB   2014-07-04 23:49 
   Рудий пес / Red Dog (2011) Ukr/Eng | sub Ukr/Eng BOOGud  0 / 0   788 MB   2012-07-03 11:36 
   Рудий пес / Red Dog (2011) Ukr/Eng | sub Ukr/Eng BOOGud  4 / 0   1.59 GB   2012-06-24 14:55 
leroykendall 
Модератор HD


З нами з: 03.01.11
Востаннє: 20.11.16
Повідомлень: 749

2012-06-30 21:54  
Треба зазначити джерело відео.
11FrYkT 
Модератор відео


З нами з: 20.02.11
Востаннє: 10.12.16
Повідомлень: 3135

2012-06-30 22:00  
leroykendall , система чомусь не вказує, я вибирав. А хіба це є обов*язковим?
okzdp 
Поважний учасник


З нами з: 27.05.09
Востаннє: 10.12.16
Повідомлень: 209

2012-07-05 21:47  
Жирний фільм
Дякую!

11FrYkT 
Модератор відео


З нами з: 20.02.11
Востаннє: 10.12.16
Повідомлень: 3135

2012-07-05 22:24  
okzdp , будь ласка
cyberprostir 
Свій


З нами з: 15.11.09
Востаннє: 05.12.16
Повідомлень: 105

2012-11-17 13:29  
Ще б озвучку багатоголосу!
Ваш часовий пояс: GMT + 2 Години

Нова тема   Відповісти