Завантажити та скачати торренти українською


Хроніка [Розширена версія] / Chronicle [EXTENDED] (2012) 1080p Ukr/Eng | Sub Ukr/Eng

Нові коментарі

Нова тема   Відповісти
Автор Повідомлення
ratbol 
Модератор HD


З нами з: 03.02.09
Востаннє: 07.12.16
Повідомлень: 1088

2012-06-30 11:55  
Хроніка [Розширена версія] / Chronicle [EXTENDED] (2012) 1080p Ukr/Eng | Sub Ukr/Eng


« Not all heroes are super. »


Жанр: фантастика, бойовик, трилер, драма, молодiжний
Країна: США, Великобританія



Кіностудія / кінокомпанія: 20th Century Fox, Davis Entertainment, Adam Schroeder Productions, Film Afrika Worldwide
Режисер: Джошуа Транк
Актори: Майкл Джордан, Майкл Келлі, Дейн ДіХаан, Алекс Расселл, Хосе Вас, Меттью Робертс, Люк Стейн та інші

Сюжет:
Три школяра отримують супер здібності після виявлення впавшого метеорита. Скоро вони потраплять у вир подій, в якому відкриються їх темні сторони.


Тривалість: 01:29:36
Якість:
Відео:
кодек:
розмір кадру: 1920 х 1040
бітрейт: 15588 кб/с
ріпування: ratbol

Аудіо # 1:
мова: українська
переклад: професійний дубльований
кодек: 5.1
бітрейт: 448 кб/с

Аудіо # 2:
мова: англійська
переклад: оригінал
кодек: 5.1
бітрейт: 1536 кб/с

Джерело озвучення та субтитрів:


Субтитри # 1:
мова: українська
тип: програмні (м'які)
формат: *.srt
розпізнавання і редагування: ratbol

Субтитри # 2:
мова: англійська
тип: програмні (м'які)
формат: *.srt

Оригінальні розділи:
Збережено.

MediaInfo
Код:
General
Unique ID                        : 233967844565707779196538988532792691360 (0xB004915A81E5BA63B3388D30478E0AA0)
Complete name                    : E:\MOVIES\movie releases\Chronicle (2012)\VID\Chronicle [Directors Cut] (2012) [Ukr, Eng. Sub - Ukr, Eng] 1080p [Hurtom].mkv
Format                           : Matroska
Format version                   : Version 2
File size                        : 11.0 GiB
Duration                         : 1h 29mn
Overall bit rate                 : 17.5 Mbps
Movie name                       : Chronicle [Director's Cut] (2012) [Hurtom]
Encoded date                     : UTC 2012-06-30 07:17:41
Writing application              : mkvmerge v5.4.0 ('Piper') built on Mar 10 2012 13:34:39
Writing library                  : libebml v1.2.3 + libmatroska v1.3.0

Video
ID                               : 1
Format                           : AVC
Format/Info                      : Advanced Video Codec
Format profile                   : [email protected]
Format settings, CABAC           : Yes
Format settings, ReFrames        : 4 frames
Codec ID                         : V_MPEG4/ISO/AVC
Duration                         : 1h 29mn
Bit rate                         : 15.6 Mbps
Width                            : 1 920 pixels
Height                           : 1 040 pixels
Display aspect ratio             : 16:9
Frame rate                       : 23.976 fps
Color space                      : YUV
Chroma subsampling               : 4:2:0
Bit depth                        : 8 bits
Scan type                        : Progressive
Bits/(Pixel*Frame)               : 0.326
Stream size                      : 9.54 GiB (87%)
Title                            : Реліз-група HDH
Writing library                  : core 120 r2164 da19765
Encoding settings                : cabac=1 / ref=4 / deblock=1:-3:-3 / analyse=0x3:0x133 / me=umh / subme=11 / psy=1 / psy_rd=1.00:0.15 / mixed_ref=1 / me_range=32 / chroma_me=1 / trellis=2 / 8x8dct=1 / cqm=0 / deadzone=21,11 / fast_pskip=0 / chroma_qp_offset=-3 / threads=12 / sliced_threads=0 / nr=0 / decimate=1 / interlaced=0 / bluray_compat=0 / constrained_intra=0 / bframes=10 / b_pyramid=2 / b_adapt=2 / b_bias=0 / direct=3 / weightb=1 / open_gop=0 / weightp=2 / keyint=240 / keyint_min=23 / scenecut=40 / intra_refresh=0 / rc_lookahead=60 / rc=2pass / mbtree=1 / bitrate=15588 / ratetol=1.0 / qcomp=0.60 / qpmin=0 / qpmax=69 / qpstep=4 / cplxblur=20.0 / qblur=0.5 / ip_ratio=1.40 / aq=1:1.00
Language                         : English
Default                          : Yes
Forced                           : No

Audio #1
ID                               : 2
Format                           : AC-3
Format/Info                      : Audio Coding 3
Mode extension                   : CM (complete main)
Codec ID                         : A_AC3
Duration                         : 1h 29mn
Bit rate mode                    : Constant
Bit rate                         : 448 Kbps
Channel(s)                       : 6 channels
Channel positions                : Front: L C R, Side: L R, LFE
Sampling rate                    : 48.0 KHz
Bit depth                        : 16 bits
Compression mode                 : Lossy
Stream size                      : 287 MiB (3%)
Title                            : 5.1 [448 Kbps] — дубльований, Blu-ray
Language                         : Ukrainian
Default                          : Yes
Forced                           : No

Audio #2
ID                               : 3
Format                           :
Format/Info                      : Digital Theater Systems
Codec ID                         : A_DTS
Duration                         : 1h 29mn
Bit rate mode                    : Constant
Bit rate                         : 1 510 Kbps
Channel(s)                       : 6 channels
Channel positions                : Front: L C R, Side: L R, LFE
Sampling rate                    : 48.0 KHz
Bit depth                        : 24 bits
Compression mode                 : Lossy
Stream size                      : 968 MiB (9%)
Title                            : 5.1 [1536 Kbps] — оригінал
Language                         : English
Default                          : No
Forced                           : No

Text #1
ID                               : 4
Format                           : UTF-8
Codec ID                         : S_TEXT/UTF8
Codec ID/Info                    : UTF-8 Plain Text
Language                         : Ukrainian
Default                          : No
Forced                           : No

Text #2
ID                               : 5
Format                           : UTF-8
Codec ID                         : S_TEXT/UTF8
Codec ID/Info                    : UTF-8 Plain Text
Language                         : English
Default                          : No
Forced                           : No

Menu
00:00:00.000                     : en:Chapter 1
00:03:35.215                     : en:Chapter 2
00:07:07.427                     : en:Chapter 3
00:11:19.637                     : en:Chapter 4
00:14:19.233                     : en:Chapter 5
00:19:52.233                     : en:Chapter 6
00:23:12.558                     : en:Chapter 7
00:26:43.101                     : en:Chapter 8
00:28:08.353                     : en:Chapter 9
00:31:53.537                     : en:Chapter 10
00:36:42.158                     : en:Chapter 11
00:38:31.893                     : en:Chapter 12
00:41:48.589                     : en:Chapter 13
00:45:06.621                     : en:Chapter 14
00:48:58.185                     : en:Chapter 15
00:53:20.114                     : en:Chapter 16
00:56:37.311                     : en:Chapter 17
01:01:22.345                     : en:Chapter 18
01:04:48.676                     : en:Chapter 19
01:08:09.710                     : en:Chapter 20
01:10:40.611                     : en:Chapter 21
01:14:09.069                     : en:Chapter 22
01:21:12.951                     : en:Chapter 23
01:23:55.280                     : en:Chapter 24
x264log
Код:
-[NoImage] [info]: using SAR=1/1
-[NoImage] [info]: using cpu capabilities: MMX2 SSE2Fast SSSE3 FastShuffle SSE4.2 AVX
-[NoImage] [info]: profile High, level 4.1
-[NoImage]
-[NoImage] [info]: frame I:619   Avg QP:16.07  size:292635
-[NoImage] [info]: frame P:30690 Avg QP:18.85  size:130903
-[NoImage] [info]: frame B:97595 Avg QP:21.00  size: 64304
-[NoImage] [info]: consecutive B-frames:  3.3%  3.7%  5.9% 35.3% 13.0% 19.4%  7.9%  7.8%  1.3%  1.9%  0.3%
-[NoImage] [info]: mb I  I16..4: 18.2% 60.1% 21.7%
-[NoImage] [info]: mb P  I16..4:  3.4% 27.7%  3.4%  P16..4: 20.0% 23.3%  7.0%  3.5%  0.6%    skip:11.1%
-[NoImage] [info]: mb B  I16..4:  0.6%  6.6%  0.7%  B16..8: 34.1% 19.9%  3.3%  direct: 9.6%  skip:25.2%  L0:42.1% L1:39.5% BI:18.4%
-[NoImage] [info]: 8x8 transform intra:81.1% inter:44.8%
-[NoImage] [info]: direct mvs  spatial:99.4% temporal:0.6%
-[NoImage] [info]: coded y,uvDC,uvAC intra: 87.9% 90.5% 78.5% inter: 38.4% 38.7% 15.6%
-[NoImage] [info]: i16 v,h,dc,p: 39% 13% 10% 38%
-[NoImage] [info]: i8 v,h,dc,ddl,ddr,vr,hd,vl,hu:  8%  7% 12% 11% 13% 11% 12% 12% 14%
-[NoImage] [info]: i4 v,h,dc,ddl,ddr,vr,hd,vl,hu: 11% 10%  9%  8% 13% 11% 13% 10% 15%
-[NoImage] [info]: i8c dc,h,v,p: 53% 17% 14% 17%
-[NoImage] [info]: Weighted P-Frames: Y:2.6% UV:1.5%
-[NoImage] [info]: ref P L0: 59.4%  8.4% 21.8%  9.5%  0.8%  0.0%
-[NoImage] [info]: ref B L0: 88.4%  9.6%  2.0%
-[NoImage] [info]: ref B L1: 94.0%  6.0%
-[NoImage] [info]: kb/s:15585.76
Скріншоти







Джерело: Реліз-група &
Особиста оцінка: 7.5 - непогано


Срібний реліз (на рейтинг впливає 50% завантаженого)
 Трекер:    Зареєстрований   

Завантажити / скачати фільм українською



відео для новачків



 Зареєстрований:   2012-06-30 11:55
 Розмір:   10.98 GB 
 Оцінка фільму:   8.5/10 (Голосів: 12)
   
Ваш часовий пояс: GMT + 2 Години

Нова тема   Відповісти