Завантажити та скачати торренти українською


Вкуси Мене! (Сезон 1) / Bite Me! (Season 1) (2010)

Нові коментарі

Нова тема   Відповісти
Останній раз роздавалося Klen-Yavir (2016-12-11)

Увійдіть, щоб проголосувати
Автор Повідомлення
UAVoice 
Частий відвідувач


З нами з: 16.06.12
Востаннє: 08.04.14
Повідомлень: 43

2012-06-28 00:03  
Вкуси Мене! (Сезон 1) / Bite Me! (Season 1) (2010)




Жанр: жахи, комедія, фантастика, катастрофа, чорна комедія
Країна: США


Кінокомпанія / телеканал: machinima.com
Режисер: Джарретт Лі Коневей
Актори/ролі озвучують: Йозеф Абу-Талеб, Джастін Гіддінгс, Райан Уелш Дастін, Коффі Эрін Фіцджералд, Азмут Камінскі, Ліббі Бредлі та інші

Сюжет:
Ось у що може перетворитись життя трьох молодих друзів-сусідів після незапланованого повстання мертв'яків? Звісно, в чудову комедію! Хлопці достатньо награлись у мережі в Dead Rising 2 (Повсталих мерців-2), щоб не розгубитися у схожій ситуації. Пригоди, гумор і натовпи мерців, що вештаються - все це в новому короткометражному серіалу ""Вкуси мене!", який припаде вам до душі... А якщо ні, то ми відкусимо вам вухо!


Тривалість: 1 епізод: 09:22 (цілком серій: 5)
Перелік серій
01 Спалах/Outbreak
02 Повстання мертвого хлопця/Dead Guy Rising
03 Хлопець з Craigslist/Craigslist Guy
04 Нічне бачення/Night Vision
05 Ніч робить плями/Night Makes a Stain
Якість:
Відео:
кодек: AVC
розмір кадру: 640 х 360
бітрейт: 1 141кб/с

Аудіо:
мова: українська
переклад: багатоголосий закадровий UAVoice
кодек: 2.0
бітрейт: 128 кб/с

Джерело озвучення: Перекладено та озвучено проектом UAVoice
Скріншоти
Над релізом працювали:
Переклад: Дмитро Урсуляк, Віталій Прискурій та Віолетта Александру
Ролі озвучували: Віталій Прискурій, Дмитро Урсуляк, Дмитро Роецький, Яна Дюамели, Маряна Телючик, Віктор Чорней та Тетяна Фомінова.
Зведення: Віталій Прискурій
Увага!!! Торрент перезалито (08.08.2012): доданий 5 епізод.
Сезон офіційно перекладено!


Джерело: http://uavoice.at.ua
Особиста оцінка: 10 - без зайвих вагань рекомендую всім!


Авторський реліз (завантажувати можна без реєстрації)
 Трекер:    Зареєстрований   

Завантажити / скачати серіал українською



відео для новачків



 Зареєстрований:   2012-08-08 18:59
 Розмір:   169 MB 
 Оцінка серіалу:   10/10 (Голосів: 6)
   
UAVoice 
Частий відвідувач


З нами з: 16.06.12
Востаннє: 08.04.14
Повідомлень: 43

2012-06-29 21:42  
Givi
Звіт Мediaіnfo
General
Complete name : E:\UAVoise\Вкуси мене\ВкусиМене! С1Е1-2 (640х360)\Вкуси мене! Bite Me! S1E1 UKR (UAVoice).mp4
Format : MPEG-4
Format profile : Base Media / Version 2
Codec ID : mp42
File size : 38.5 MiB
Duration : 9mn 22s
Overall bit rate mode : Variable
Overall bit rate : 575 Kbps
Encoded date : UTC 2012-06-19 15:06:34
Tagged date : UTC 2012-06-19 15:06:34
gsst : 0
gstd : 562340
gssd : B4A7DDA01MH1340821908691520
gshh : o-o.preferred.fra07t18.v1.cache1.c.youtube.com

Video
ID : 1
Format : AVC
Format/Info : Advanced Video Codec
Format profile : [email protected]
Format settings, CABAC : No
Format settings, ReFrames : 1 frame
Codec ID : avc1
Codec ID/Info : Advanced Video Coding
Duration : 9mn 22s
Bit rate : 477 Kbps
Maximum bit rate : 1 141 Kbps
Width : 640 pixels
Height : 360 pixels
Display aspect ratio : 16:9
Frame rate mode : Constant
Frame rate : 23.976 fps
Color space : YUV
Chroma subsampling : 4:2:0
Bit depth : 8 bits
Scan type : Progressive
Bits/(Pixel*Frame) : 0.086
Stream size : 32.0 MiB (83%)
Tagged date : UTC 2012-06-19 15:06:34

Audio
ID : 2
Format :
Format/Info : Advanced Audio Codec
Format profile : LC
Codec ID : 40
Duration : 9mn 22s
Bit rate mode : Variable
Bit rate : 96.0 Kbps
Maximum bit rate : 128 Kbps
Channel(s) : 2 channels
Channel positions : Front: L R
Sampling rate : 44.1 KHz
Compression mode : Lossy
Stream size : 6.38 MiB (17%)
Title : IsoMedia File Produced by Google, 5-11-2011
Encoded date : UTC 2012-06-19 15:06:34
Tagged date : UTC 2012-06-19 15:06:34

UAVoice 
Частий відвідувач


З нами з: 16.06.12
Востаннє: 08.04.14
Повідомлень: 43

2012-07-13 01:09  
Доданий 3 епізод!!! (13.07.2012)

Musketeer 
VIP


З нами з: 04.03.08
Востаннє: 05.06.13
Повідомлень: 3674

2012-07-13 01:14  
де назва третьої серії?
sania2011 
Поважний учасник


З нами з: 25.02.11
Востаннє: 10.12.16
Повідомлень: 150

2012-07-13 09:11  
а коли четверта буде?
don pedro 
Попереджень: 1
Попереджень: 1 


З нами з: 29.06.11
Востаннє: 11.12.16
Повідомлень: 8780

2012-07-13 12:23  
Ці дебіли зачинили зомбі у кімнат і пішли далі гратись. А потім зникло світло...
Saloman 
Частий відвідувач


З нами з: 03.05.08
Востаннє: 09.12.16
Повідомлень: 45

2012-07-13 12:46  
Стосовно зауважень - актор, що не вимовляє "р" у групі озвучки взагалі недоречний
UAVoice 
Частий відвідувач


З нами з: 16.06.12
Востаннє: 08.04.14
Повідомлень: 43

2012-07-13 15:17  
Saloman
Ми не група і не студія!!! UAVoice це проект до якого може долучитися всі бажаючи які мають бажання та апаратуру!!! Ми не професійні актори, ми просто люди які долучились до проекту і віддаємо свої зусилля та час просто так!!!
А якщо вам не подобається наша озвучка ніхто вас не змушує її слухати!!!
А що до того актора який не вимовляє "р" ми всі не ідеальні!!! До того ж 3 епізоди вже озвучено.

don pedro 
Попереджень: 1
Попереджень: 1 


З нами з: 29.06.11
Востаннє: 11.12.16
Повідомлень: 8780

2012-07-24 19:18  
Викладіть четверту серію.
UAVoice 
Частий відвідувач


З нами з: 16.06.12
Востаннє: 08.04.14
Повідомлень: 43

2012-07-24 19:31  
don pedro написано:
Викладіть четверту серію.

Скоро буде!

TRO[9]N 
Відео Гуртом - озвучення
Відео Гуртом - озвучення


З нами з: 09.06.11
Востаннє: 27.11.16
Повідомлень: 618

2012-07-24 21:32  
UAVoice Не треба так різко реагувати! Всі розуміють, що все це на добровільній основі! Ми також займаємось озвученням і нас також критикують (зараз трохи менше, але критикують). Критика - вона для того щоб люди прислухадись до неї, ніхто нікого не звинувачуєі тим більше не наказує, це просто критика Happy і ще одне можна семпл?
BOOGud 
VIP


З нами з: 06.03.12
Востаннє: 11.11.16
Повідомлень: 907

2012-07-24 22:12  
TRO[9]N
Віталій у нас хлопець запальний) з характером як то кажуть)

І рекомендую качати з цьої роздачі тут якість набагато краща(HD): http://toloka.to/t37388

і щодо семплу, якщо ви про озвучку то її можна зацінити тут:

TRO[9]N 
Відео Гуртом - озвучення
Відео Гуртом - озвучення


З нами з: 09.06.11
Востаннє: 27.11.16
Повідомлень: 618

2012-07-24 22:23  
BOOGud ОК дякую)
UAVoice 
Частий відвідувач


З нами з: 16.06.12
Востаннє: 08.04.14
Повідомлень: 43

2012-07-25 13:07  
Доданий 4 епізод (15.07.2012)


Додано через 10 хвилин 33 секунди:

Що скажете про українізований постер??? Варто замінити?

UAVoice 
Частий відвідувач


З нами з: 16.06.12
Востаннє: 08.04.14
Повідомлень: 43

2012-08-08 19:00  
Додана 5 серія (08.08.2012)
Сезон офіційно перекладено!

Neo777 
Модератор відео


З нами з: 23.06.10
Востаннє: 10.12.16
Повідомлень: 675

2012-08-11 20:41  
UAVoice написано:
(цілком серій: 1-4 з 5)

Виправте

UAVoice 
Частий відвідувач


З нами з: 16.06.12
Востаннє: 08.04.14
Повідомлень: 43

2012-08-12 11:21  
Neo777
Виправив! Дякую!

Ваш часовий пояс: GMT + 2 Години

Нова тема   Відповісти