Завантажити та скачати торренти українською


Ромовий щоденник / The Rum Diary (2011) 720р Ukr/Eng | Sub Eng

Нові коментарі

Нова тема   Відповісти
Автор Повідомлення
11FrYkT 
Модератор відео


З нами з: 20.02.11
Востаннє: 09.12.16
Повідомлень: 3135

2012-06-27 21:39  
Ромовий щоденник / The Rum Diary (2011) 720р Ukr/Eng | Sub Eng

Ромовий щоденник / The Rum Diary (2011) 720р Ukr/Eng | Sub Eng

«Все на грані фолу»



Жанр: комедія, драма, мелодрама, трилер
Країна: США



Кіностудія / кінокомпанія: GK Films, Infinitum Nihil, FilmEngine, Dark & Stormy Entertainment
Режисер: Брюс Робінсон / Bruce Robinson
Актори: Джонні Депп / Johnny Depp, Аарон Екгарт / Aaron Eckhart, Майкл Рісполі / Michael Rispoli, Ембер Герд / Amber Heard, Річард Дженкінс / Richard Jenkins, Джованні Рібізі / Giovanni Ribisi, Аморі Ноласко / Amaury Nolasco, Маршалл Белл / Marshall Bell, Білл Смітрович / Bill Smitrovich, Джуліан Холлоуей / Julian Holloway, Бруно Ірізарі / Bruno Irizarry, Ензо Cіленті / Enzo Cilenti, Аерон Лустіг / Aaron Lustig, Тісубі Гонзалез / Tisuby Gonzalez, Наталія Рівера / Natalia Rivera

Сюжет:
Кінець 50-х. Журналіст Пол Кемп кидає роботу в престижному нью-йоркському виданні, їде в Пуерто-Ріко, влаштовується кореспондентом в англомовній газеті міста Сан-Хуана. Тут все коштує копійки — ром, який ллється річкою, машини, яхти, дружба з такими ж невдахами, як і він, саме життя. Йому за тридцять, він шукає себе, він живе в очікуванні часу, коли він зрозуміє: ще рано пускати кулю в лоб, тут ще є, на що поглянути.


Тривалість: 01:59:58
Якість:
Відео:
кодек:
розмір кадру: 1280 x 694
бітрейт: 8848 кб/с

Аудіо # 1:
мова: українська
переклад: багатоголосий закадровий (псевдо дубляж)
кодек: 5.1
бітрейт: 384 кб/с
Фільм перекладено і озвучено на студії Tretyakoff production на замовлення Aurora Distribution

Аудіо # 2:
мова: англійська
переклад: оригінал
кодек: 5.1
бітрейт: 1536 кб/с

Субтитри #1:
мова: англійська [SDH]
тип: програмні (м'які)
формат: *.srt

Субтитри#2:
мова: англійська
тип: програмні (м'які)
формат: *.srt

Джерело: &
MediaInfo
Код:
The Rum Diary (2011) 720р.mkv
   General
      UniqueID : 180416155171527593095610415975198549686 (0x87BAE337C2FE4946BA31504E5CAAE6B6)
      Complete name : The Rum Diary (2011) 720р.mkv
      Format : Matroska
      File size : 9.00 GiB
      Duration : 1h 59mn
      Overall bit rate : 10.7 Mbps
      Movie name : The Rum Diary (2011) 720p
      Encoded date : UTC 2012-06-27 19:28:10
      Writing application : mkvmerge v4.9.1 ('Ich will') зібрано Jul 11 2011 23:53:15
      Writing library : libebml v1.2.1 + libmatroska v1.1.1
   Video #1
      ID : 1
      Format : AVC
      Format/Info : Advanced Video Codec
      Format profile : [email protected]
      Format settings, CABAC : Yes
      Format settings, ReFrames : 9 frames
      Codec ID : V_MPEG4/ISO/AVC
      Duration : 1h 59mn
      Bit rate : 8 848 Kbps
      Width : 1 280 pixels
      Height : 694 pixels
      Display aspect ratio : 16:9
      Frame rate : 23.976 fps
      Color space : YUV
      Chroma subsampling : 4:2:0
      Bit depth : 8 bits
      Scan type : Progressive
      Bits/(Pixel*Frame) : 0.415
      Stream size : 7.23 GiB (80%)
      Writing library : core 120 r2146 bcd41db
      Encoding settings : cabac=1 / ref=9 / deblock=1:-3:-3 / analyse=0x3:0x113 / me=tesa / subme=11 / psy=1 / psy_rd=1.10:0.05 / mixed_ref=1 / me_range=24 / chroma_me=1 / trellis=2 / 8x8dct=1 / cqm=0 / deadzone=21,11 / fast_pskip=0 / chroma_qp_offset=-3 / threads=6 / sliced_threads=0 / nr=0 / decimate=0 / interlaced=0 / bluray_compat=0 / constrained_intra=0 / bframes=7 / b_pyramid=2 / b_adapt=2 / b_bias=0 / direct=3 / weightb=1 / open_gop=0 / weightp=2 / keyint=250 / keyint_min=23 / scenecut=40 / intra_refresh=0 / rc_lookahead=60 / rc=2pass / mbtree=1 / bitrate=8848 / ratetol=1.0 / qcomp=0.60 / qpmin=0 / qpmax=69 / qpstep=4 / cplxblur=20.0 / qblur=0.5 / vbv_maxrate=38000 / vbv_bufsize=30000 / nal_hrd=none / ip_ratio=1.40 / aq=1:0.70
      Language : English
      Color primaries : BT.709-5, BT.1361, IEC 61966-2-4, SMPTE RP177
      Transfer characteristics : BT.709-5, BT.1361
      Matrix coefficients : BT.709-5, BT.1361, IEC 61966-2-4 709, SMPTE RP177
   Audio #2
      ID : 2
      Format : AC-3
      Format/Info : Audio Coding 3
      Mode extension : CM (complete main)
      Codec ID : A_AC3
      Duration : 1h 59mn
      Bit rate mode : Constant
      Bit rate : 384 Kbps
      Channel(s) : 6 channels
      Channel positions : Front: L C R, Side: L R, LFE
      Sampling rate : 48.0 KHz
      Bit depth : 16 bits
      Compression mode : Lossy
      Stream size : 330 MiB (4%)
      Title : 5.1 @ 384 kbps
      Language : Ukrainian
   Audio #3
      ID : 3
      Format :
      Format/Info : Digital Theater Systems
      Codec ID : A_DTS
      Duration : 1h 59mn
      Bit rate mode : Constant
      Bit rate : 1 510 Kbps
      Channel(s) : 6 channels
      Channel positions : Front: L C R, Side: L R, LFE
      Sampling rate : 48.0 KHz
      Bit depth : 24 bits
      Compression mode : Lossy
      Video delay : 11ms
      Stream size : 1.27 GiB (14%)
      Title : 5.1 @ 1536 kbps
      Language : English
   Text #4
      ID : 4
      Format : UTF-8
      Codec ID : S_TEXT/UTF8
      Codec ID/Info : UTF-8 Plain Text
      Title : SDH
      Language : English
   Text #5
      ID : 5
      Format : UTF-8
      Codec ID : S_TEXT/UTF8
      Codec ID/Info : UTF-8 Plain Text
      Language : English
Світлини



 Трекер:    Зареєстрований   

Завантажити / скачати фільм українською



відео для новачків



 Зареєстрований:   2012-06-30 16:06
 Розмір:   9 GB 
 Оцінка фільму:   9/10 (Голосів: 6)
   
Інші релізи
dr_stas 
Відео Гуртом - дизайнер
Відео Гуртом - дизайнер


З нами з: 21.07.09
Востаннє: 09.12.16
Повідомлень: 452

2012-06-27 21:52  
а чому?
11FrYkT написано:
(псевдо дубляж)

11FrYkT 
Модератор відео


З нами з: 20.02.11
Востаннє: 09.12.16
Повідомлень: 3135

2012-06-27 21:57  
dr_stas ,
доріжку взяв з недавно створеної роздачі, тому я це не видумував

karvai0 
Відео Гуртом - запис з ТБ
Відео Гуртом - запис з ТБ


З нами з: 18.01.10
Востаннє: 09.09.16
Повідомлень: 3686

2012-06-28 00:50  
dr_stas написано:
а чому?

а що дубляж?

leroykendall 
Модератор HD


З нами з: 03.01.11
Востаннє: 20.11.16
Повідомлень: 749

2012-06-28 10:24  
Судячи з МедіаІнфо SDH субтитри йдуть першими.

Додано через 5 хвилин 28 секунд:

Треба вказати джерело відео.

11FrYkT 
Модератор відео


З нами з: 20.02.11
Востаннє: 09.12.16
Повідомлень: 3135

2012-06-29 20:44  
leroykendall ,
виправив, хоча це не суттєво

leroykendall 
Модератор HD


З нами з: 03.01.11
Востаннє: 20.11.16
Повідомлень: 749

2012-06-30 15:35  
11FrYkT
Я щось не розумію, якою це мовою підписаний файл?
Згідно правил п. 2.10: "назва фільму(файлу) виключно латиницею і тільки англійська версія"
Треба виправити. Реліз поки що у неоформлених.

Додано через 29 секунд:

http://toloka.to/t20052

11FrYkT 
Модератор відео


З нами з: 20.02.11
Востаннє: 09.12.16
Повідомлень: 3135

2012-06-30 16:10  
Всім хто завантажив приношу вибачення так як я неправильно підписав файл. Перейменуйте скачаний файл на The Rum Diary (2011) 720р
Дякую!!!

leroykendall 
Модератор HD


З нами з: 03.01.11
Востаннє: 20.11.16
Повідомлень: 749

2012-06-30 20:53  
11FrYkT
Змініть, будь ласка, ще відповідно МедіаІнфо.

Ваш часовий пояс: GMT + 2 Години

Нова тема   Відповісти