Завантажити та скачати торренти українською


Години відчаю / Desperate Hours (1990) 1080p 2xUkr/Eng

Нові коментарі

Нова тема   Відповісти
Автор Повідомлення
urij546724 
Відео Гуртом - фільмокрай
Відео Гуртом - фільмокрай


З нами з: 16.03.10
Востаннє: 05.12.16
Повідомлень: 5222

2012-06-27 14:37  
Години відчаю / Desperate Hours (1990) 1080p 2xUkr/Eng


Слоган:
«Who is stronger? A psychopath who feeds on terror? Or a father driven by fear? Only time will tell.»
«Хто сильніший? Психопат, який живиться терором? Чи батько, керований страхами? Тільки час покаже.»


Жанр: трилер, кримінальний, драма
Країна: США ()



Кіностудія / кінокомпанія: Dino De Laurentiis Company
Режисер: Майкл Чіміно (Michael Cimino)
Актори: Міккі Рурк (Mickey Rourke), Ентоні Хопкінс (Anthony Hopkins), Мімі Роджерс (Mimi Rogers), Ліндсі Краус (Lindsay Crouse), Келлі Лінч (Kelly Lynch), Еліас Котеас (Elias Koteas), Девід Морс (David Morse), Шоуні Сміт (Shawnee Smith)...
Усі актори та їх фото:
Міккі Рурк (Mickey Rourke), Ентоні Хопкінс (Anthony Hopkins), Мімі Роджерс (Mimi Rogers), Ліндсі Краус (Lindsay Crouse), Келлі Лінч (Kelly Lynch), Еліас Котеас (Elias Koteas), Девід Морс (David Morse), Шоуні Сміт (Shawnee Smith), Денні Герард (Danny Gerard), Джеррі Беммен (Gerry Bamman), Метт МакГрейз (Matt McGrath), Джон Крістофер Джонс (John Christopher Jones), Дін Норріс (Dean Norris), Джон Фінн (John Finn), Крістофер Кюррі (Christopher Curry), Стенлі Вайт (Stanley White), Пітер Кромбі (Peter Crombie), Еллен Паркер (Ellen Parker), Елізабет Руссціо (Elizabeth Ruscio), Кеннет Басс (Kenneth Bass), Майк Нассбаум (Mike Nussbaum), Еллен МакЕлдафф (Ellen McElduff), Бріттні Льюїс (Brittney Lewis), Лізі Вілбурн (Lise Wilburn), Рон Берд (Ron Bird), Алексіс Фернандез (Alexis Fernández), Боб Еванс (Bob Evans), Джеймс Ребхорн (James Rebhorn), Майкл Флінн (Michael Flynn), Джефф Олсон (Jeff Olson), Джордж Салліван (George Sullivan), Роберт Роу (Robert Rowe), Даніель Кюсіттер (Daniel Cussiter), Гарі Фленер (Gary Flener), Річард Ернандез (Richard Hernandez), Гарі Паркер (Gary Parker), Джеймс Тортона (James Thorton), Бредлі Лізейм (Bradley Leatham), Брайан Джеймс Андерсон (Brian James Anderson), Меттью Рангі Браун (Matthew Rangi Brown), Беррі Праймус (Barry Primus), Ральф Вайт (Ralph Waite), Роберт 'Боббі З' Зайонц (Robert 'Bobby Z' Zajonc)




Сюжет:
Фільм розповідає про зухвалого психопата Босуерта, який втік з в'язниці за допомогою пристрасно закоханої в нього адвокатші. Бандит вирішує сховатися зі своїми спільниками в самому звичайному будинку.

Перебування злочинної трійці в непрошених гостях перетворилося на жахіття для його мирних мешканців. Психологічний трилер, рімейк фільму Вільяма Вайлера (1955). В основу обох фільмів покладено роман Джозефа Хейес (Joseph Hayes), раніше поставлений на бродвейській сцені.


Збори в США: 2 742 912 долари
Назва фільму у інших країнах
24 Stunden in seiner Gewalt
Австрія / Німеччина


La maison des otages
Канада (Французька назва) / Франція


37 horas desesperadas
Іспанія


A Noite do Desespero
Португалія


A félelem órái
Угорщина


Casovi ocaja
Сербія


Desperate Hours
Франція


Desperate Hours - 24 Stunden in seiner Gewalt
Німеччина (Назва на DVD)


Desperate timer
Норвегія


Epätoivon tunnit
Фінляндія


Förtvivlans timmar
Фінляндія (Шведська назва)


Godziny rozpaczy
Польща


Horas de Desespero
Бразилія


Horas desesperadas
Уругвай


Ore disperate
Італія


Ores agonias
Греція


Skräckens timmar
Швеція


Часы отчаяния
Росія
Media Info
General
ID : 1 (0x1)
Complete name : D:\Desperate Hours (1990) [ukr Noviy_2+2_eng_AC3_2.0] 1080p [Hurtom] by urij546724.ts
Format : MPEG-TS
File size : 11.5 GiB
Duration : 1h 40mn
Overall bit rate mode : Variable
Overall bit rate : 16.4 Mbps
Maximum Overall bit rate : 35.5 Mbps

Video
ID : 4113 (0x1011)
Menu ID : 1 (0x1)
Format : AVC
Format/Info : Advanced Video Codec
Format profile : [email protected]
Format settings, CABAC : Yes
Format settings, ReFrames : 2 frames
Format settings, GOP : M=3, N=12
Codec ID : 27
Duration : 1h 40mn
Bit rate mode : Variable
Bit rate : 15.0 Mbps
Maximum bit rate : 40.0 Mbps
Width : 1 920 pixels
Height : 1 088 pixels
Display aspect ratio : 16:9
Frame rate : 25.000 fps
Color space : YUV
Chroma subsampling : 4:2:0
Bit depth : 8 bits
Scan type : Progressive
Bits/(Pixel*Frame) : 0.287
Stream size : 10.6 GiB (92%)
Color primaries : BT.709-5, BT.1361, IEC 61966-2-4, SMPTE RP177
Transfer characteristics : BT.709-5, BT.1361
Matrix coefficients : BT.709-5, BT.1361, IEC 61966-2-4 709, SMPTE RP177

Audio #1
ID : 4352 (0x1100)
Menu ID : 1 (0x1)
Format : AC-3
Format/Info : Audio Coding 3
Mode extension : CM (complete main)
Format settings, Endianness : Big
Codec ID : 129
Duration : 1h 40mn
Bit rate mode : Constant
Bit rate : 192 Kbps
Channel(s) : 2 channels
Channel positions : Front: L R
Sampling rate : 48.0 KHz
Bit depth : 16 bits
Compression mode : Lossy
Stream size : 138 MiB (1%)
Language : Ukrainian

Audio #2
ID : 4353 (0x1101)
Menu ID : 1 (0x1)
Format : AC-3
Format/Info : Audio Coding 3
Mode extension : CM (complete main)
Format settings, Endianness : Big
Codec ID : 129
Duration : 1h 40mn
Bit rate mode : Constant
Bit rate : 192 Kbps
Channel(s) : 2 channels
Channel positions : Front: L R
Sampling rate : 48.0 KHz
Bit depth : 16 bits
Compression mode : Lossy
Stream size : 138 MiB (1%)
Language : Ukrainian

Audio #3
ID : 4354 (0x1102)
Menu ID : 1 (0x1)
Format : AC-3
Format/Info : Audio Coding 3
Mode extension : CM (complete main)
Format settings, Endianness : Big
Codec ID : 129
Duration : 1h 40mn
Bit rate mode : Constant
Bit rate : 192 Kbps
Channel(s) : 2 channels
Channel positions : Front: L R
Sampling rate : 48.0 KHz
Bit depth : 16 bits
Compression mode : Lossy
Delay relative to video : 91ms
Stream size : 138 MiB (1%)
Language : English
Тривалість: 01:40:38
Якість: 1080p
Відео:
кодек:
розмір кадру: 1920 х 1088
бітрейт: ~ 15 мб/с
частота кадрів: 25 к/с (fps)

Аудіо #1:
мова: українська
переклад: двоголосий закадровий
кодек: 2.0
бітрейт: 192 кб/с
запис звуку з каналу:

Аудіо #2:
мова: українська
переклад: двоголосий закадровий
кодек: 2.0
бітрейт: 192 кб/с
запис звуку з каналу:

Аудіо #3:
мова: англійська
переклад: оригінал
кодек: 2.0
бітрейт: 192 кб/с

Скріншоти:





Трейлер:
Семпл
Джерело 1_________Джерело 2_________Джерело 3_________Джерело 4
У випадку, якщо з усіх джерел семпл видалять, прохання повідомити мені у ПРИВАТ


Подяка:

1. Пані SweetN та Пану ua2004 за запис звуку з ТБ.
2. Пану Воїн за українізацію постера.


Реліз створено: &

Особиста оцінка: Ще не дивився.

Реліз не зберігатиму. Видалю, щойно знадобиться вільне місце.


Срібний реліз (на рейтинг впливає 50% завантаженого)
 Трекер:    Зареєстрований   

Завантажити / скачати фільм українською



відео для новачків



 Зареєстрований:   2012-07-12 12:24
 Розмір:   11.53 GB 
 Оцінка фільму:   3.3/10 (Голосів: 4)
 Прохання залишати коментарі і не тікати з роздачі.
   
Інші релізи
   Години відчаю / Desperate Hours (1990) 2xUkr/Eng urij546724  1 / 1   2 GB   2012-07-13 22:53 
Ваш часовий пояс: GMT + 2 Години

Нова тема   Відповісти