Завантажити та скачати торренти українською


Трон: Спадок / TRON: Legacy (2010) 720p

Нові коментарі

Нова тема   Відповісти
Автор Повідомлення
Drool 
VIP


З нами з: 17.04.10
Востаннє: 08.12.16
Повідомлень: 1271

2012-06-27 07:44  
Трон: Спадок / TRON: Legacy (2010) 720p

Трон: Спадок / TRON: Legacy (2010) 720p
Ще один варіант постеру


Жанр: фантастика, бойовик, трилер, пригодницький
Країна: США



Кіностудія / кінокомпанія: Walt Disney Pictures, LivePlanet
Режисер: Джозеф Косінскі
Актори: Джефф Бріджес, Гаррет Хедлунд, Олівія Уайлд, Брюс Бокслайтнер, Джеймс Фрейн, Бо Гарретт, Майкл Шин, Серінда Свон, Йайа ДаКоста, Елізабет Метіс

Сюжет:
Сем Флінн, технічно обдарований 27-річний син Кевіна Флінна, починає розслідувати зникнення свого батька і опиняється втягнутим у світ жорстоких програм і гладіаторських ігор, в якому його батько жив впродовж 25 років. Разом з помічницею Кевіна, батько і син вирушають у ризиковану подорож за життям по приголомлшливому кібер-всесвіту, який став ще досконалішим і надзвичайно небезпечним.


Тривалість: 02:05:08
Якість: 720p
Відео:
кодек:
розмір кадру: 1280x544
бітрейт: 4154 кб/с

Аудіо:
мова: українська
переклад: професійний дубльований
кодек: 5.1
бітрейт: 640 кб/с

Джерело озвучення:
MediaInfo
General
Unique ID : 44078385782915440271721666351516568894 (0x21293034F344A904D2590477595B4D3E)
Complete name : /mnt/disk/Video/TRON.Legacy.2010.Ukr.Dub..720p.UAGet.mkv
Format : Matroska
File size : 4.19 GiB
Duration : 2h 5mn
Overall bit rate : 4 793 Kbps
Movie name : Трон: Спадок / TRON: Legacy (2010) 720p -=UAGet=-
Encoded date : UTC 2012-06-25 09:07:49
Writing application : mkvmerge v4.8.0 ('I Got The...') built on Aug 22 2011 13:16:28
Writing library : libebml v1.2.0 + libmatroska v1.1.0

Video
ID : 1
Format : AVC
Format/Info : Advanced Video Codec
Format profile : [email protected]
Format settings, CABAC : Yes
Format settings, ReFrames : 8 frames
Codec ID : V_MPEG4/ISO/AVC
Duration : 2h 5mn
Bit rate : 4 154 Kbps
Width : 1 280 pixels
Height : 544 pixels
Display aspect ratio : 2.35:1
Frame rate mode : Variable
Frame rate : 23.976 fps
Color space : YUV
Chroma subsampling : 4:2:0
Bit depth : 8 bits
Scan type : Progressive
Bits/(Pixel*Frame) : 0.249
Stream size : 3.55 GiB (85%)
Title : TRON: Legacy (2010) 720p -=UAGet=-
Writing library : core 112
Encoding settings : cabac=1 / ref=9 / deblock=1:-1:-1 / analyse=0x3:0x133 / me=umh / subme=10 / psy=1 / psy_rd=1.00:0.20 / mixed_ref=1 / me_range=24 / chroma_me=1 / trellis=2 / 8x8dct=1 / cqm=0 / deadzone=21,11 / fast_pskip=0 / chroma_qp_offset=-3 / threads=3 / sliced_threads=0 / nr=0 / decimate=1 / interlaced=0 / constrained_intra=0 / bframes=9 / b_pyramid=1 / b_adapt=2 / b_bias=0 / direct=3 / weightb=1 / open_gop=0 / weightp=2 / keyint=240 / keyint_min=23 / scenecut=40 / intra_refresh=0 / rc=2pass / mbtree=0 / bitrate=4154 / ratetol=1.0 / qcomp=1.00 / qpmin=3 / qpmax=51 / qpstep=4 / cplxblur=20.0 / qblur=0.5 / ip_ratio=1.40 / pb_ratio=1.30 / aq=2:0.60
Color primaries : BT.709-5, BT.1361, IEC 61966-2-4, SMPTE RP177
Transfer characteristics : BT.709-5, BT.1361
Matrix coefficients : BT.709-5, BT.1361, IEC 61966-2-4 709, SMPTE RP177

Audio
ID : 2
Format : AC-3
Format/Info : Audio Coding 3
Mode extension : CM (complete main)
Codec ID : A_AC3
Duration : 2h 5mn
Bit rate mode : Constant
Bit rate : 640 Kbps
Channel(s) : 6 channels
Channel positions : Front: L C R, Side: L R, LFE
Sampling rate : 48.0 KHz
Bit depth : 16 bits
Compression mode : Lossy
Stream size : 573 MiB (13%)
Title : Ukrainian DUB
Language : Ukrainian
Скріншоти












Джерело:
Особиста оцінка: 9 - давно не бачив настільки якісне кіно


 Трекер:    Зареєстрований   

Завантажити / скачати фільм українською



відео для новачків



 Зареєстрований:   2012-06-27 07:45
 Розмір:   4.19 GB 
 Оцінка фільму:   9.9/10 (Голосів: 17)
   
Інші релізи
   Трон: Спадок / TRON: Legacy (2010) 720p-mini (60fps) | IMAX Drool  1 / 0   6.38 GB   2015-03-02 13:37 
   Трон: Спадок / TRON: Legacy (2010) Blu-Ray 1080p Multi | Sub Multi Drool  0 / 0   38.31 GB   2013-09-06 12:02 
   Трон: Спадок / TRON: Legacy (2010) 1080p Ukr | Sub Ukr/Eng sergiyko  3 / 0   12.3 GB   2013-09-03 19:50 
   Трон: Спадок / TRON: Legacy (2010) 1080p-mini Zeus62  2 / 0   4.34 GB   2011-04-03 00:22 
   Трон: Спадок / TRON: Legacy (2010) 1080p 3D [OverUnder] Ukr/Eng | Sub Ukr/Eng Бузьок  2 / 0   17.53 GB   2011-03-20 21:59 
   Трон: Спадок / TRON: Legacy (2010) FaB0SS  3 / 0   1.45 GB   2011-03-10 21:58 
   Трон: Спадок / TRON: Legacy (2010) Ukr/Eng | Sub 2хUkr/Eng antik_2008  8 / 0   2.55 GB   2011-03-10 18:54 
   Трон: Спадок / TRON: Legacy (2010) 720p Ukr/Eng | Sub Ukr/Eng Andick  5 / 0   7.1 GB   2011-03-10 18:29 
Ваш часовий пояс: GMT + 2 Години

Нова тема   Відповісти