Завантажити та скачати торренти українською


Сім душ / Seven Pounds (2008) 720p-mini

Нові коментарі

Нова тема   Відповісти
Автор Повідомлення
Drool 
VIP


З нами з: 17.04.10
Востаннє: 09.12.16
Повідомлень: 1270

2012-06-25 12:14  
Сім душ / Seven Pounds (2008) 720p-mini

Сім душ / Seven Pounds (2008) 720p-mini


Жанр: драма
Країна: США



Кіностудія / кінокомпанія: Columbia Pictures
Режисер: Ґабріеле Муччіно
Актори: Уілл Сміт, Розаріо Доусон, Вуді Харрельсон, Майкл Ілі, Беррі Пеппер, Елпідія Каррільо, Робін Лі, Джо Нуньєс, Білл Смітрович, Тім Келлехер

Сюжет:
Бен – торгівельний агент, який марнує своє життя на те, аби жалкувати за минулим. Перебуваючи в постійній депресії, він котиться на самісіньке дно, однак в його житті з’являється промінь світла в особі милої Емілі, яка ще раз доводить Бену і всьому світу, що кохання здатне творити дива.
Допомагаючи 7 незнайомим людям, Бен знайде себе. Бог створив світ за 7 днів, що за цей час може зробити людина?


Тривалість: 02:03:05
Якість: 720p-mini
Відео:
кодек:
розмір кадру: 1280x532
бітрейт: 2219 кб/с

Аудіо:
мова: українська
переклад: професійний дубльований
кодек: 5.1
бітрейт: 448 кб/с

Джерело озвучення:
MediaInfo
General
Unique ID : 59143769735682164216471501594433697276 (0x2C7EACFBB5C0CAD3C994E668D42035FC)
Complete name : /mnt/disk/Video/Seven.Pounds.2008.Ukr.Dub..720p.UAGet.mkv
Format : Matroska
File size : 2.29 GiB
Duration : 2h 3mn
Overall bit rate : 2 668 Kbps
Movie name : Сім душ / Seven Pounds (2008) 720p -=UAGet=-
Encoded date : UTC 2012-06-25 07:08:46
Writing application : mkvmerge v4.8.0 ('I Got The...') built on Aug 22 2011 13:16:28
Writing library : libebml v1.2.0 + libmatroska v1.1.0

Video
ID : 1
Format : AVC
Format/Info : Advanced Video Codec
Format profile : [email protected]
Format settings, CABAC : Yes
Format settings, ReFrames : 8 frames
Codec ID : V_MPEG4/ISO/AVC
Duration : 2h 3mn
Bit rate : 2 219 Kbps
Width : 1 280 pixels
Height : 532 pixels
Display aspect ratio : 2.40:1
Frame rate mode : Variable
Frame rate : 23.976 fps
Color space : YUV
Chroma subsampling : 4:2:0
Bit depth : 8 bits
Scan type : Progressive
Bits/(Pixel*Frame) : 0.136
Stream size : 1.86 GiB (81%)
Title : Seven Pounds (2008) 720p -=UAGet=-
Writing library : core 112
Encoding settings : cabac=1 / ref=9 / deblock=1:-1:-1 / analyse=0x3:0x133 / me=umh / subme=10 / psy=1 / psy_rd=1,00:0,20 / mixed_ref=1 / me_range=24 / chroma_me=1 / trellis=2 / 8x8dct=1 / cqm=0 / deadzone=21,11 / fast_pskip=0 / chroma_qp_offset=-3 / threads=6 / sliced_threads=0 / nr=0 / decimate=1 / interlaced=0 / constrained_intra=0 / bframes=9 / b_pyramid=1 / b_adapt=2 / b_bias=0 / direct=3 / weightb=1 / open_gop=0 / weightp=2 / keyint=240 / keyint_min=23 / scenecut=40 / intra_refresh=0 / rc=2pass / mbtree=0 / bitrate=2219 / ratetol=1,0 / qcomp=1,00 / qpmin=3 / qpmax=51 / qpstep=4 / cplxblur=20,0 / qblur=0,5 / ip_ratio=1,40 / pb_ratio=1,30 / aq=2:0,60
Color primaries : BT.709-5, BT.1361, IEC 61966-2-4, SMPTE RP177
Transfer characteristics : BT.709-5, BT.1361
Matrix coefficients : BT.709-5, BT.1361, IEC 61966-2-4 709, SMPTE RP177

Audio
ID : 2
Format : AC-3
Format/Info : Audio Coding 3
Mode extension : CM (complete main)
Codec ID : A_AC3
Duration : 2h 3mn
Bit rate mode : Constant
Bit rate : 448 Kbps
Channel(s) : 6 channels
Channel positions : Front: L C R, Side: L R, LFE
Sampling rate : 48.0 KHz
Bit depth : 16 bits
Compression mode : Lossy
Stream size : 394 MiB (17%)
Title : Ukrainian DUB
Language : Ukrainian
Скріншоти








Джерело:
Особиста оцінка: 10 - без зайвих вагань рекомендую всім!


 Трекер:    Зареєстрований   

Завантажити / скачати фільм українською



відео для новачків



 Зареєстрований:   2012-06-25 12:15
 Розмір:   2.29 GB 
 Оцінка фільму:   9.6/10 (Голосів: 30)
   
Інші релізи
   Сім душ / Сім життів / Seven Pounds (2008) 2xUkr patriot2305  11 / 0   2.18 GB   2015-01-25 13:59 
   Сім душ / Seven Pounds (2008) 720p Ukr/Eng | Sub Eng braveboy  5 / 0   7.09 GB   2012-02-27 07:43 
10alexs 
VIP


З нами з: 26.02.09
Востаннє: 09.12.16
Повідомлень: 296

2012-06-25 12:25  
Фільм на 10/10. Уілл Сміт як завжди зробив зі звичайної картини шедевр!
AndriyVoron 
Свій


З нами з: 30.11.10
Востаннє: 03.12.16
Повідомлень: 127

2012-06-25 16:43  
Не скажу що щедевр, але фільм дуже гарний.
asics1990 
Частий відвідувач


З нами з: 13.04.09
Востаннє: 21.11.16
Повідомлень: 38

2012-06-25 20:28  
Згоден , до шедевра не дотягує . Як на мене то не вистачає динамічності , спочатку фільм здається трохи нуднуватий .
10alexs не варто забувати про Розаріо Доусон, Вуді Харрельсон ,Майкл Ілі і Беррі Пеппер. Дай взагалі всю команду яка працювала над фільмом. Один в полі не воїн ))))

SonicZero 
Новенький


З нами з: 01.06.10
Востаннє: 02.08.15
Повідомлень: 6

2012-06-26 02:08  
фільм класний.... змінив моє ставлення до всього.....
SerGiy177 
Новенький


З нами з: 06.06.12
Востаннє: 18.10.16
Повідомлень: 7

2012-08-28 23:50  
дуже гарний фільм
Kriminal 
Новенький


З нами з: 12.12.11
Востаннє: 09.12.16
Повідомлень: 7

2012-09-11 15:45  
фільм неможливо прокоментувати. чесно кажучи я не маю слів, такий фільм бучу вперше......
Ваш часовий пояс: GMT + 2 Години

Нова тема   Відповісти