Завантажити та скачати торренти українською


Скажений бик / Raging Bull (1980) 720p Ukr/Eng | Sub Ukr/Eng

Нові коментарі

Нова тема   Відповісти
Автор Повідомлення
Omikron 
VIP


З нами з: 03.01.12
Востаннє: 08.12.16
Повідомлень: 298

2012-06-20 17:40  
Скажений бик / Raging Bull (1980) 720p Ukr/Eng | Sub Ukr/Eng



Жанр: біографічний, драма, спорт
Країна: США

Top 250 #90

Кіностудія / кінокомпанія: United Artists, Chartoff-Winkler Productions
Режисер: Мартін Скорсезе
Актори: Роберт Де Ніро, Джо Пеші, Кеті Моріарті, Тереза Салдана, Френк Вінсент

Сюжет:
Джейк ЛаМотта, що отримав прізвисько Бронкський Бик, - боксер. І всі його психологічні і сексуальні комплекси люто викидаються на боксерському ринзі. Під гарячу руку йому попадається рідний брат, який став жертвою нав'язливої параної і ревнощів Джейка, а також п'ятнадцятирічна дівчинка, якій судилося стати найголовнішою нагородою Джейка ... і маною, що переслідує його.



Тривалість: 02:09:03
Якість:
Відео:
кодек:
розмір кадру: 1280 х 696
бітрейт: 7 Мб/с

Аудіо#1:
мова: українська
переклад: багатоголосий закадровий | студія Омікрон
кодек: 5.1
бітрейт: 1510 кб/с

Аудіо#2:
мова: англійська
переклад: оригінал
кодек: 5.1
бітрейт: 1510 кб/с

Аудіо#3:
мова: англійська
переклад: коментарі
кодек: Vorbis 2.0
бітрейт: 80 кб/с

Субтитри#1:
мова: українська
тип: програмні (м'які)
формат: *.srt

Субтитри#2:
мова: англійська
тип: програмні (м'які)
формат: *.srt

Скріншоти












звіт MediaInfo

Format : Matroska
Format version : Version 2
File size : 9.17 GiB
Duration : 2h 9mn
Overall bit rate mode : Variable
Overall bit rate : 10.2 Mbps
Encoded date : UTC 2012-06-20 16:48:22
Writing application : mkvmerge v2.9.0 ('Moanin'') built on May 22 2009 17:46:31
Writing library : libebml v0.7.7 + libmatroska v0.8.1

Video
ID : 1
Format : AVC
Format/Info : Advanced Video Codec
Format profile : [email protected]
Format settings, CABAC : Yes
Format settings, ReFrames : 8 frames
Codec ID : V_MPEG4/ISO/AVC
Duration : 2h 9mn
Bit rate : 7 080 Kbps
Width : 1 280 pixels
Height : 696 pixels
Display aspect ratio : 16:9
Frame rate : 23.976 fps
Color space : YUV
Chroma subsampling : 4:2:0
Bit depth : 8 bits
Scan type : Progressive
Bits/(Pixel*Frame) : 0.331
Stream size : 6.19 GiB (68%)
Writing library : core 65 r1069M ed32ad2
Encoding settings : cabac=1 / ref=8 / deblock=1:-3:-3 / analyse=0x3:0x113 / me=umh / subme=9 / psy_rd=0.9:0.0 / mixed_ref=1 / me_range=24 / chroma_me=1 / trellis=0 / 8x8dct=1 / cqm=2 / deadzone=8,8 / chroma_qp_offset=-4 / threads=3 / nr=0 / decimate=1 / mbaff=0 / bframes=12 / b_pyramid=1 / b_adapt=2 / b_bias=0 / direct=3 / wpredb=1 / keyint=250 / keyint_min=25 / scenecut=40(pre) / rc=2pass / bitrate=7080 / ratetol=1.0 / qcomp=0.60 / qpmin=10 / qpmax=51 / qpstep=4 / cplxblur=20.0 / qblur=0.5 / ip_ratio=1.40 / pb_ratio=1.30 / aq=1:0.90 / zones=179813,185665,q=40
Language : English
Default : Yes
Forced : No

Audio #1
ID : 2
Format :
Format/Info : Digital Theater Systems
Codec ID : A_DTS
Duration : 2h 9mn
Bit rate mode : Constant
Bit rate : 1 510 Kbps
Channel(s) : 6 channels
Channel positions : Front: L C R, Side: L R, LFE
Sampling rate : 48.0 KHz
Bit depth : 24 bits
Compression mode : Lossy
Delay relative to video : 1s 1ms
Stream size : 1.36 GiB (15%)
Title : MVO Omikron Studio for Hurtom
Language : Ukrainian
Default : Yes
Forced : No

Audio #2
ID : 3
Format :
Format/Info : Digital Theater Systems
Codec ID : A_DTS
Duration : 2h 9mn
Bit rate mode : Constant
Bit rate : 1 510 Kbps
Channel(s) : 6 channels
Channel positions : Front: L C R, Side: L R, LFE
Sampling rate : 48.0 KHz
Bit depth : 24 bits
Compression mode : Lossy
Stream size : 1.36 GiB (15%)
Language : English
Default : No
Forced : No

Audio #3
ID : 4
Format : Vorbis
Format settings, Floor : 1
Codec ID : A_VORBIS
Duration : 2h 9mn
Bit rate mode : Variable
Bit rate : 80.0 Kbps
Channel(s) : 2 channels
Sampling rate : 48.0 KHz
Compression mode : Lossy
Stream size : 73.9 MiB (1%)
Title : Commentary by Martin Scorsese, Thelma Schoonmaker
Writing library : libVorbis 1.2 (UTC 2007-06-22)
Language : English
Default : No
Forced : No
Writing application : VLC media player

Text #1
ID : 5
Format : UTF-8
Codec ID : S_TEXT/UTF8
Codec ID/Info : UTF-8 Plain Text
Language : Ukrainian
Default : Yes
Forced : No

Text #2
ID : 6
Format : UTF-8
Codec ID : S_TEXT/UTF8
Codec ID/Info : UTF-8 Plain Text
Language : English
Default : No
Forced : No



Подяка за постер пану bilenkuyboy.
Джерело:


Авторський реліз (завантажувати можна без реєстрації)
 Трекер:    Зареєстрований   

Завантажити / скачати фільм українською



відео для новачків



 Зареєстрований:   2012-06-20 19:03
 Розмір:   9.17 GB 
 Оцінка фільму:   8.8/10 (Голосів: 16)
   
Інші релізи
Ваш часовий пояс: GMT + 2 Години

Нова тема   Відповісти