Завантажити та скачати торренти українською


Ілюзіоніст / The Illusionist (2006) 720p 2xUkr/Eng | Sub Eng

Нові коментарі

Нова тема   Відповісти
Автор Повідомлення
braveboy 
Відео Гуртом - команда HD
Відео Гуртом - команда HD


З нами з: 15.06.10
Востаннє: 29.10.16
Повідомлень: 958

2012-06-18 20:27  

Ілюзіоніст / The Illusionist (2006) 720p 2xUkr/Eng | Sub Eng


Ілюзіоніст / The Illusionist (2006) 720p 2xUkr/Eng | Sub Eng

«Все ілюзія ... Крім любові »


Жанр: трилер, драма, мелодрама, детектив
Країна: США, Чехія



Кіностудія / кінокомпанія: Bob Yari Productions, Bull's Eye Entertainment, Contagious Entertainment, Michael London Productions, Stillking Films
Режисер: Ніл Бергєр / Neil Burger
Сценарій: Ніл Бергер / Neil Burger, Стівен Міллхаузера / Steven Millhauser
Продюсер: Кеті Шульман / Cathy Schulman, Боб Ярі / Bob Yari, Брайан Коппельман / Brian Koppelman, Девід Левієн / David Levien, Майкл Лондон / Michael London
Оператор: Дік Поуп / Dick Pope
Композитор: Філіп Гласс / Philip Glass
Актори: Едвард Нортон (Eisenheim), Пол Джаматті (Inspector Uhl), Джесіка Біл (Sophie), Руфус Сьюелл (Crown Prince Leopold), Едді Марсан (Josef Fischer), Джейк Вуд (Jurka), Том Фішер (Willigut), Аарон Джонсон (Young Eisenheim), Елінор Томлінсон (Young Sophie), Карл Джонсон (Doctor / Old Man), Вінсент Франклін (Loschek), Ніколас Блейн (Herr Doebler) Дублери: Олександр Рахленко (Eisenheim), В'ячеслав Баранов (Inspector Uhl), Ольга Плетньова (Sophie), Олег Куценко (Crown Prince Leopold), Микита Прозоровський (Josef Fischer), Віктор Петров (Doctor / Old Man)
Цікаві факти про фільм

• Хоча історія «Ілюзіоніст» є вигадкою, деякі її деталі засновані на біографії австрійського Спадкоємного Принца Рудольфа, тільки сина Імператора Франца Йосипа. Якраз той портрет, який Айзенхайм зображує за допомогою фокуса в палаці, насправді і є портрет Франца Йосипа. Мертві тіла Рудольфа і його коханки Баронеси Мері Ветсери були знайдені в його мисливському будиночку в Майерлінг 30 січня 1889. Імперська сім'я впродовж багатьох років надавала цій події наліт таємничості.
• У сцені, коли Принц Леопольд стріляє з рушниці, до нього підходить інспектор Уль, щоб повідомити про таємні зустрічі Софії і Айзенхайм. Принц задає питання: «Чим вони займалися?». Інспектор відповідає йому: «перелюбствували». В дійсності ж, цим дієсловом замінили слово «Fucking», щоб картина змогла досягти рейтингу PG-13, який виключає слово на букву F.
• Для повного занурення в роль, Едвард Нортон став учнем відомого ілюзіоніста Джеймса Фрідмана. Незважаючи на це, в деяких сценах ми бачимо руки Фрідмана, а не Нортона.
• Частина знятих сцен не увійшла у фінальну версію фільму, включаючи сцену за участю Роббі Кая.
• Незважаючи на те, що дія фільму відбувається в Австрії, фільм здебільшого був знятий в Чеській Республіці. Місто Відень, в якому розгорталися основні події, був знятий в чеському місті Табор і Празі. Село, в якій виріс Ейзенхайм, була знята в Чеському Крумлові. Замок принца Леопольда - це замок Конопіште, розташований близько Бенешова, в якому жив Франц Фердинанд - австрійський ерцгерцог. Решта епізоди фільму були зняті на кіностудії «Баррандов» в Празі.
Бюджет: $ 16 500 000
Збори в США: $ 39 868 642
Збори в світі: $ 87 413 690
Світова прем'єра: 27 квітня 2006
Реліз на DVD: 9 липня 2009, «CP-Digital»
Нагороди та номінації


Стрічка була номінована на премію «Оскар» за кращу роботу оператора. «Срібної жаби» був удостоєний оператор фільму, Дік Поуп. Едвард Нортон отримав премію від кінокритиків Сан-Дієго (також за фільми «Розмальована вуаль» і «Це трапилося в долині"). Композитор Філіп Гласс удостоївся премії BFCA в 2007 році.
Сюжет:
Відень. Початок 20 століття. У місті з'являється загадкова людина, що називав себе ілюзіоністом Ейзенхаймом. Він показує публіці небачені фокуси, які здаються не інакше як чарами.
Слава про незвичайний чародія доходить до кронпринца Леопольда, який вшанував своєю присутністю одне з уявлень Ейзенхайма. Леопольда супроводжує його майбутня наречена Софі. Її поява в залі дає поштовх для цілої низки непояснених подій, коріння яких відходять у минуле ...


Тривалість: 01:48:55
Якість: 720p
Відео:
кодек:
розмір кадру: 1280 х 694
бітрейт: 5648 кб/с

Аудіо # 1:
мова: українська
переклад: багатоголосий закадровий
кодек: 2.0
бітрейт: 192 кб/с

Аудіо # 2:
мова: українська
переклад: багатоголосий закадровий
кодек: 2.0
бітрейт: 192 кб/с

Аудіо # 3:
мова: англійська
переклад: оригінал
кодек: 5.1
бітрейт: 1510 кб/с

Субтитри:
мова: англійська
тип: програмні (м'які)
формат: *.srt

Подяка за укр. доріжки taraskill1
MediaInfo
Video
ID : 1
Format : AVC
Format/Info : Advanced Video Codec
Format profile : [email protected]
Format settings, CABAC : Yes
Format settings, ReFrames : 8 frames
Format settings, GOP : N=1
Codec ID : V_MPEG4/ISO/AVC
Duration : 1h 48mn
Bit rate : 5 648 Kbps
Width : 1 280 pixels
Height : 694 pixels
Display aspect ratio : 1.85:1
Frame rate mode : Constant
Frame rate : 23.976 fps
Color space : YUV
Chroma subsampling : 4:2:0
Bit depth : 8 bits
Scan type : Progressive
Bits/(Pixel*Frame) : 0.265
Stream size : 4.19 GiB (73%)
Title : The Illusionist (2006) 720p
Writing library : core 68 r1183M f21daff
Encoding settings : cabac=1 / ref=8 / deblock=1:-3:-3 / analyse=0x3:0x113 / me=umh / subme=9 / psy_rd=1.0:0.0 / mixed_ref=1 / me_range=32 / chroma_me=1 / trellis=2 / 8x8dct=1 / cqm=0 / deadzone=21,11 / chroma_qp_offset=-2 / threads=6 / nr=0 / decimate=1 / mbaff=0 / bframes=3 / b_pyramid=1 / b_adapt=2 / b_bias=0 / direct=3 / wpredb=1 / keyint=250 / keyint_min=25 / scenecut=40 / rc=2pass / bitrate=5648 / ratetol=1.0 / qcomp=0.60 / qpmin=10 / qpmax=51 / qpstep=4 / cplxblur=20.0 / qblur=0.5 / ip_ratio=1.40 / pb_ratio=1.30 / aq=1:0.80
Default : Yes
Forced : No
DURATION : 01:48:56.275000000
NUMBER_OF_FRAMES : 156714
NUMBER_OF_BYTES : 4614297001
_STATISTICS_WRITING_APP : mkvmerge v7.4.0 ('Circles') 64bit built on Dec 12 2014 12:19:56
_STATISTICS_WRITING_DATE_UTC : 2015-02-12 18:31:21
_STATISTICS_TAGS : BPS DURATION NUMBER_OF_FRAMES NUMBER_OF_BYTES

Audio #1
ID : 2
Format : AC-3
Format/Info : Audio Coding 3
Mode extension : CM (complete main)
Format settings, Endianness : Big
Codec ID : A_AC3
Duration : 1h 48mn
Bit rate mode : Constant
Bit rate : 192 Kbps
Channel(s) : 2 channels
Channel positions : Front: L R
Sampling rate : 48.0 KHz
Bit depth : 16 bits
Compression mode : Lossy
Stream size : 150 MiB (3%)
Title : 2.0 @ 192 kbps [K1]
Language : Ukrainian
Default : Yes
Forced : No

Audio #2
ID : 3
Format : AC-3
Format/Info : Audio Coding 3
Mode extension : CM (complete main)
Format settings, Endianness : Big
Codec ID : A_AC3
Duration : 1h 48mn
Bit rate mode : Constant
Bit rate : 192 Kbps
Channel(s) : 2 channels
Channel positions : Front: L R
Sampling rate : 48.0 KHz
Bit depth : 16 bits
Compression mode : Lossy
Stream size : 150 MiB (3%)
Title : 2.0 @ 192 kbps [1+1]
Language : Ukrainian
Default : No
Forced : No

Audio #3
ID : 4
Format :
Format/Info : Digital Theater Systems
Mode : 16
Format settings, Endianness : Big
Codec ID : A_DTS
Duration : 1h 48mn
Bit rate mode : Constant
Bit rate : 1 509 Kbps
Channel(s) : 6 channels
Channel positions : Front: L C R, Side: L R, LFE
Sampling rate : 48.0 KHz
Bit depth : 16 bits
Compression mode : Lossy
Stream size : 1.15 GiB (20%)
Title : 5.1 - 1510 kbps
Language : English
Default : No
Forced : No

Text
ID : 5
Format : UTF-8
Codec ID : S_TEXT/UTF8
Codec ID/Info : UTF-8 Plain Text
Title : Full
Language : English
Default : No
Forced : No

o
Скріншоти



Особиста оцінка: 10 - без зайвих вагань рекомендую всім!


 Трекер:    Зареєстрований   

Завантажити / скачати фільм українською



відео для новачків



 Зареєстрований:   2015-02-12 21:07
 Розмір:   5.74 GB 
 Оцінка фільму:   9.7/10 (Голосів: 37)
   
Інші релізи
   Ілюзіоніст / The Illusionist (2006) 2xUkr/Eng taraskill1  11 / 0   2.14 GB   2014-12-07 16:19 
   Ілюзіоніст / The Illusionist (2006) Ukr/Eng antik_2008  4 / 0   2.18 GB   2011-01-16 12:13 
ValicV 
Свій


З нами з: 18.01.10
Востаннє: 03.12.16
Повідомлень: 67

2012-06-19 14:00  
> braveboy
За реліз величезний +!
А коли будете роздавати?

waldi-hurtom 
VIP


З нами з: 07.10.12
Востаннє: 02.12.16
Повідомлень: 611

2013-01-19 21:28  
Гарна казочка! Дякую!
igor911 
Відео Гуртом
Відео Гуртом


З нами з: 18.01.08
Востаннє: 03.12.16
Повідомлень: 5115

2015-02-12 21:14  
braveboy, яку доріжку додав?
low 
Свій


З нами з: 21.10.09
Востаннє: 02.12.16
Повідомлень: 61

2015-02-12 22:09  
Класно переклали: "вшанував своєю присутністю одне з уявлень Ейзенхайма". Мабуть було: "одно из представлений"
braveboy 
Відео Гуртом - команда HD
Відео Гуртом - команда HD


З нами з: 15.06.10
Востаннє: 29.10.16
Повідомлень: 958

2015-02-13 05:05  
igor911 написано:
braveboy, яку доріжку додав?

від К1

Ваш часовий пояс: GMT + 2 Години

Нова тема   Відповісти