Завантажити та скачати торренти українською


Трансформери 3 у 3D / Transformers: Dark of the Moon 3D (2011) 720p [OverUnder]

Нові коментарі

Нова тема   Відповісти
Автор Повідомлення
Бузьок 
програми
програми


З нами з: 18.10.09
Востаннє: 27.11.16
Повідомлень: 1009

2012-06-17 20:55  






Жанр: бойовик, фантастика, пригодницький
Країна: США
Кінокомпанія: DreamWorks SKG, Paramount Pictures
Режисер: Майкл Бей
Актори: Шайа ЛаБаф, Розі Хантінгтон-Вайтлі, Джош Дюамель, Тайріз Гібсон, Джон Туртурро, Рамон Родрігез, Кевін Данн, Джулі Уайт, Ізабель Лукас, Джон Бенжамін Хіккі, Патрік Демпсі
Сюжет:
Для наших героїв настали сумні будні: Сем втратив Мікаелу, уряд випускає законодавчий акт про виселення Автоботів з Землі, а доки Мегатрон ховається після ганебної поразки Фоллена, десептікон Шокуейв, правитель Кібертрона, готується зробити візит нашій планеті із зовсім не добрими намірами. Дія завершальної частини трилогії цього разу охопить не лише Землю, але і Місяць, темна сторона якого зберігає не менш темні таємниці.

Тривалість: 02:34:22
Якість:
Відео:
кодек:
розмір кадру: 1280 х 1440
бітрейт: 10 мб/с
формат 3D: вертикальна стереопара

Аудіо # 1:
мова: українська
переклад: професійний дубльований
кодек: 5.1
бітрейт: 384 кб/с

Переклад і озвучення виконано:

MediaInfo
Код:
General
Unique ID                                : 253637824088241323911695871065676532896 (0xBED0DE3822F889539A5D2A5900DB4CA0)
Complete name                            : D:\Transformers.DarkOfTheMoon.3D.2011.BD3DRip.720p.OU...2xRus (1).mkv
Format                                   : Matroska
Format version                           : Version 2
File size                                : 11.5 GiB
Duration                                 : 2h 34mn
Overall bit rate                         : 10.6 Mbps
Movie name                               : Transformers.DarkOfTheMoon.3D.2011.BD3DRip.720p.OU...2xRus
Encoded date                             : UTC 2012-06-15 21:29:00
Writing application                      : mkvmerge v5.3.0 ('I could have danced') built on Feb  9 2012 10:38:07
Writing library                          : libebml v1.2.3 + libmatroska v1.3.0

Video
ID                                       : 1
Format                                   : AVC
Format/Info                              : Advanced Video Codec
Format profile                           : [email protected]
Format settings, CABAC                   : Yes
Format settings, ReFrames                : 4 frames
Codec ID                                 : V_MPEG4/ISO/AVC
Duration                                 : 2h 34mn
Bit rate                                 : 10.0 Mbps
Width                                    : 1 280 pixels
Height                                   : 1 440 pixels
Display aspect ratio                     : 0.889
Frame rate                               : 23.976 fps
Color space                              : YUV
Chroma subsampling                       : 4:2:0
Bit depth                                : 8 bits
Scan type                                : Progressive
Bits/(Pixel*Frame)                       : 0.227
Stream size                              : 10.8 GiB (94%)
Writing library                          : core 116 r2074 2641b9e
Encoding settings                        : cabac=1 / ref=4 / deblock=1:-3:-3 / analyse=0x3:0x133 / me=umh / subme=9 / psy=1 / psy_rd=1.00:0.05 / mixed_ref=1 / me_range=16 / chroma_me=1 / trellis=2 / 8x8dct=1 / cqm=0 / deadzone=21,11 / fast_pskip=1 / chroma_qp_offset=-3 / threads=3 / sliced_threads=0 / nr=0 / decimate=1 / interlaced=0 / bluray_compat=0 / constrained_intra=0 / bframes=6 / b_pyramid=2 / b_adapt=2 / b_bias=0 / direct=3 / weightb=1 / open_gop=0 / weightp=2 / keyint=250 / keyint_min=23 / scenecut=40 / intra_refresh=0 / rc_lookahead=40 / rc=crf / mbtree=1 / crf=18.0 / qcomp=0.60 / qpmin=10 / qpmax=69 / qpstep=4 / vbv_maxrate=50000 / vbv_bufsize=50000 / crf_max=0.0 / nal_hrd=none / ip_ratio=1.40 / aq=1:0.70
Default                                  : Yes
Forced                                   : No

Audio
ID                                       : 2
Format                                   : AC-3
Format/Info                              : Audio Coding 3
Mode extension                           : CM (complete main)
Codec ID                                 : A_AC3
Duration                                 : 2h 34mn
Bit rate mode                            : Constant
Bit rate                                 : 384 Kbps
Channel(s)                               : 6 channels
Channel positions                        : Front: L C R, Side: L R, LFE
Sampling rate                            : 48.0 KHz
Bit depth                                : 16 bits
Compression mode                         : Lossy
Stream size                              : 424 MiB (4%)
Language                                 : Ukrainian
Default                                  : Yes
Forced                                   : No

Menu
00:00:00.000                             : :01
00:08:52.574                             : :02
00:14:26.616                             : :03
00:20:20.928                             : :04
00:28:48.143                             : :05
00:36:18.635                             : :06
00:45:18.549                             : :07
00:51:53.027                             : :08
00:56:34.224                             : :09
01:04:13.308                             : :10
01:12:56.706                             : :11
01:19:09.078                             : :12
01:23:41.391                             : :13
01:28:44.819                             : :14
01:35:13.082                             : :15
01:42:44.158                             : :16
01:49:12.337                             : :17
01:56:42.913                             : :18
02:04:59.117                             : :19
02:11:29.590                             : :20
02:19:10.884                             : :21
02:25:37.520                             : :22
Скріншоти:


 Трекер:    Зареєстрований   

Завантажити / скачати фільм українською



відео для новачків



 Зареєстрований:   2012-06-17 20:55
 Розмір:   11.46 GB 
 Оцінка фільму:   9.5/10 (Голосів: 11)
   
Dark Invader 
Модератор відео


З нами з: 06.01.11
Востаннє: 04.12.16
Повідомлень: 1862

2012-06-17 21:41  
Чому лого російською?
leroykendall 
Модератор HD


З нами з: 03.01.11
Востаннє: 20.11.16
Повідомлень: 749

2012-06-18 07:00  
Треба додати заголовок.
karlione 
Новенький


З нами з: 20.10.12
Востаннє: 30.10.16
Повідомлень: 1

2015-11-08 16:46  
дайте будь-ласка роздачу
Ваш часовий пояс: GMT + 2 Години

Нова тема   Відповісти