Завантажити та скачати торренти українською


Спаун / Spawn (1997) 1080p Ukr/Eng | Sub Ukr/Eng

Нові коментарі

Нова тема   Відповісти
Автор Повідомлення
urij546724 
Відео Гуртом - фільмокрай
Відео Гуртом - фільмокрай


З нами з: 16.03.10
Востаннє: 09.12.16
Повідомлень: 5222

2012-06-16 22:52  
Спаун / Spawn (1997) 1080p Ukr/Eng | Sub Ukr/Eng

Альтернативний постер
Слоган:
«Born in darkness. Sworn to justice.»
«Народжений в темряві. Присвячений правосуддю.»


Жанр: екшн, фентезі, трилер
Країна: США ()



Кіностудія / кінокомпанія: New Line Cinema, Pull Down Your Pants Pictures, Todd McFarlane Entertainment
Режисер: Марк А.З. Діппе (Mark AZ Dippé)
Актори: Майкл Джей Вайт (Michael Jai Whiten), Джон Легуізамо (John Leguizamo), Мартін Шин (Martin Sheen), Тереза Рендл (Theresa Randle)...
Усі актори та їх фото:
Майкл Джей Вайт (Michael Jai Whiten), Джон Легуізамо (John Leguizamo), Мартін Шин (Martin Sheen), Тереза Рендл (Theresa Randle), Нікол Вільямсон (Nicol Williamson), Д.Б. Свіні (DB Sweeney), Мелінда Кларк (Melinda Clarke), Міко Хьюз (Miko Hughes), Сідні Бодуан (Sydni Beaudoin), Майкл Пападжон (Michael Papajohn), Френк Велкер (Frank Welker), Робія Ламорт (Robia LaMorte), Джон Котрен мол. (John Cothran Jr.), Керолайн Гібсон (Caroline Gibson), Тоні Хейні (Tony Haney), Марк Робінсон (Marc Robinson), Дерріл Воррен (Darryl Warren), Кріс Коппола (Chris Coppola), Майк Акраббім (Mike Akrawi), Джей Капуто (Jay Caputo), Ромео Акраббім (Romeo Akrawi), Джек Коулмен (Jack Coleman), Лаура Степп (Laura Stepp), Гаррісон Сінгер (Garrison Singer), Тодд МакФарлейн (Todd McFarlane), Анжелі Альмендар (Angelie Almendare), Ентоні Дженовезе (Anthony Genovese), Стюарт Лью (Stewart Lew)




Сюжет:
«Краповий берет» Ел Сіммонс убитий своїм начальником під час виконання чергової місії. Потрапивши в чистилище, він укладає угоду з Дияволом. Сатана дає йому силу, обладунки та зброю.

В обмін на те, щоб ще раз побачити свою дружину, Сіммонс повинен попередити прихід сил Зла на Землю. Опинившись на волі, він розриває контракт в односторонньому порядку...


Бюджет: 40 000 000 доларів
Збори в США: 54 870 175 доларів
Збори у світі: 87 840 042 долари
Назва фільму у інших країнах
Spawn
Франція / Німеччина / Італія / Словенія / Іспанія / Туреччина


O Justiceiro das Trevas
Португалія


Skoteinos ekdikitis
Греція


Spawn - Az ivadék
Угорщина


Spawn - O Soldado do Inferno
Бразилія


Spoun
Сербія


Спаун / Отродье
Росія
Чи знаєте ви, що...
1) Спочатку передбачалося, що постановником стрічки стане Тім Бертон.
2) Кличка собаки Спаз дана в честь постановника спецефектів Стіва «Спаз» Вільямса.
Нагороди і номінації
Сатурн, 1998 рік
Номінації (1):
1) Кращий грим
Media info
General
Unique ID : 226088774215046009564552220424632415065 (0xAA171D3166C4ED4A86D910F5C9DE3359)
Complete name : J:\1\Spawn (1997) [ukr_TV+ for ICTV_eng_AC3_5.1, sub ukr_eng] 1080p [Hurtom] by urij546724.mkv
Format : Matroska
Format version : Version 2
File size : 9.21 GiB
Duration : 1h 36mn
Overall bit rate : 13.7 Mbps
Movie name : Spaun (1997) [ukr_TV+ for ICTV_eng_AC3_5.1, sub ukr_eng] 1080p [Hurtom] by urij546724
Encoded date : UTC 2012-06-25 13:20:29
Writing application : mkvmerge v2.9.7 ('Tenderness') built on Jul 1 2009 18:43:35
Writing library : libebml v0.7.7 + libmatroska v0.8.1

Video
ID : 1
Format : AVC
Format/Info : Advanced Video Codec
Format profile : [email protected]
Format settings, CABAC : Yes
Format settings, ReFrames : 4 frames
Codec ID : V_MPEG4/ISO/AVC
Duration : 1h 36mn
Bit rate : 12.8 Mbps
Width : 1 920 pixels
Height : 1 040 pixels
Display aspect ratio : 16:9
Frame rate : 23.976 fps
Color space : YUV
Chroma subsampling : 4:2:0
Bit depth : 8 bits
Scan type : Progressive
Bits/(Pixel*Frame) : 0.267
Stream size : 8.42 GiB (91%)
Title : Spaun (1997) [ukr_TV+ for ICTV_eng_AC3_5.1, sub ukr_eng] 1080p [Hurtom] by urij546724
Writing library : core 120 r2164 da19765
Encoding settings : cabac=1 / ref=4 / deblock=1:-1:-1 / analyse=0x3:0x133 / me=umh / subme=10 / psy=1 / psy_rd=1.00:0.15 / mixed_ref=1 / me_range=24 / chroma_me=1 / trellis=2 / 8x8dct=1 / cqm=0 / deadzone=21,11 / fast_pskip=1 / chroma_qp_offset=-3 / threads=12 / sliced_threads=0 / nr=0 / decimate=1 / interlaced=0 / bluray_compat=0 / constrained_intra=0 / bframes=8 / b_pyramid=0 / b_adapt=2 / b_bias=0 / direct=3 / weightb=1 / open_gop=0 / weightp=2 / keyint=240 / keyint_min=23 / scenecut=40 / intra_refresh=0 / rc_lookahead=60 / rc=2pass / mbtree=1 / bitrate=12778 / ratetol=1.0 / qcomp=0.60 / qpmin=10 / qpmax=51 / qpstep=4 / cplxblur=20.0 / qblur=0.5 / vbv_maxrate=50000 / vbv_bufsize=50000 / nal_hrd=none / ip_ratio=1.40 / aq=1:1.00
Language : English
Default : Yes
Forced : No

Audio #1
ID : 2
Format : AC-3
Format/Info : Audio Coding 3
Mode extension : CM (complete main)
Codec ID : A_AC3
Duration : 1h 36mn
Bit rate mode : Constant
Bit rate : 448 Kbps
Channel(s) : 6 channels
Channel positions : Front: L C R, Side: L R, LFE
Sampling rate : 48.0 KHz
Bit depth : 16 bits
Compression mode : Lossy
Stream size : 309 MiB (3%)
Title : Українська доріжка
Language : Ukrainian
Default : Yes
Forced : No

Audio #2
ID : 3
Format : AC-3
Format/Info : Audio Coding 3
Mode extension : CM (complete main)
Codec ID : A_AC3
Duration : 1h 36mn
Bit rate mode : Constant
Bit rate : 448 Kbps
Channel(s) : 6 channels
Channel positions : Front: L C R, Side: L R, LFE
Sampling rate : 48.0 KHz
Bit depth : 16 bits
Compression mode : Lossy
Stream size : 309 MiB (3%)
Title : Англійська доріжка
Language : English
Default : No
Forced : No

Text #1
ID : 4
Format : UTF-8
Codec ID : S_TEXT/UTF8
Codec ID/Info : UTF-8 Plain Text
Title : Українські субтитри
Language : Ukrainian
Default : Yes
Forced : No

Text #2
ID : 5
Format : UTF-8
Codec ID : S_TEXT/UTF8
Codec ID/Info : UTF-8 Plain Text
Title : Англійські субтитри
Language : English
Default : No
Forced : No

Menu
00:00:00.000 : :Chapter 01
00:07:47.217 : :Chapter 02
00:11:12.130 : :Chapter 03
00:14:15.396 : :Chapter 04
00:18:59.055 : :Chapter 05
00:22:12.957 : :Chapter 06
00:30:49.514 : :Chapter 07
00:34:19.140 : :Chapter 08
00:42:19.328 : :Chapter 09
00:47:34.185 : :Chapter 10
00:52:29.855 : :Chapter 11
00:59:30.317 : :Chapter 12
01:02:48.974 : :Chapter 13
01:05:34.222 : :Chapter 14
01:08:18.261 : :Chapter 15
01:11:02.717 : :Chapter 16
01:15:08.129 : :Chapter 17
01:20:37.541 : :Chapter 18
01:24:05.540 : :Chapter 19
01:27:30.412 : :Chapter 20
01:29:40.166 : :Chapter 21
Тривалість: 01:36:22
Якість: 1080p
Відео:
кодек:
розмір кадру: 1920 х 1040
бітрейт: ~ 12.8 мб/с
частота кадрів: 23.976 к/с (fps)

Аудіо #1:
мова: українська
переклад: багатоголосий закадровий (Михайло Жонін, Михайло Тишин і один жіночий)
кодек: 5.1
бітрейт: 448 кб/с
озвучено: Студія ТВ+ на замовлення

Аудіо #2:
мова: англійська
переклад: оригінал
кодек: 5.1
бітрейт: 448 кб/с

Субтитри #1:
мова: українська
тип: програмні (м'які)
формат: *.srt
джерело:

Субтитри #2:
мова: англійська
тип: програмні (м'які)
формат: *.srt

Скріншоти:





Трейлер:



Семпл
Джерело 1_________Джерело 2_________Джерело 3_________Джерело 4
У випадку, якщо з усіх джерел семпл видалять, прохання повідомити мені у ПРИВАТ


Подяка:

1. Пану dvorsky за запис звуку з ТБ.
2. Пану Дмитро митро і Пану hellforces за українізацію постера.


Реліз створено: &

Особиста оцінка: Ще не дивився.

Реліз не зберігатиму, видалю після появи кількох сідів.


Срібний реліз (на рейтинг впливає 50% завантаженого)
 Трекер:    Зареєстрований   

Завантажити / скачати фільм українською



відео для новачків



 Зареєстрований:   2012-06-26 11:42
 Розмір:   9.21 GB 
 Оцінка фільму:   7.1/10 (Голосів: 10)
 Прохання залишати коментарі і не тікати з роздачі.
   
bot 
робот


З нами з: 30.09.07
Востаннє: 26.05.05
Повідомлень: 16041

2012-06-26 11:42  
Тему перенесено з Анонси релізів від Відео Гуртом до форуму Фільми в HD

Причина перенесення: початок роздачі
urij546724

ValicV 
Свій


З нами з: 18.01.10
Востаннє: 09.12.16
Повідомлень: 67

2012-06-26 19:47  
А 720 буде?
urij546724 
Відео Гуртом - фільмокрай
Відео Гуртом - фільмокрай


З нами з: 16.03.10
Востаннє: 09.12.16
Повідомлень: 5222

2012-06-26 23:11  
ValicV написано:
А 720 буде?

Він мене ні. Якщо хтось захоче викласти, то пишіть в приват, надам доріжку.

natashelka 
VIP


З нами з: 23.05.10
Востаннє: 09.12.16
Повідомлень: 442

2012-11-06 20:43  
Мені сподобались перші десять хвилин фільму. Але цей фільм депресивний, не кожному сподобається. Дивіться краще Ангели Чарлі, позитивний фільм з гарними дівчатами у головній ролі
boroznaya 
VIP


З нами з: 02.11.12
Востаннє: 09.12.16
Повідомлень: 1885

2015-08-30 14:13  
natashelka написано:
Мені сподобались перші десять хвилин фільму.

Окрім них більше нічого цікавого не було. Так, що Ви нічого не втратили.

Ваш часовий пояс: GMT + 2 Години

Нова тема   Відповісти