Завантажити та скачати торренти українською


Шрами 3D / Paranormal Xperience 3D (2011) 1080p [Half OverUnder]

Нові коментарі

Нова тема   Відповісти
Автор Повідомлення
10alexs 
VIP


З нами з: 26.02.09
Востаннє: 10.12.16
Повідомлень: 296

2012-06-16 12:32  
Якщо нікого немає на роздачі то завантажити можна з яндекс диску

Шрами 3D / Paranormal Xperience 3D (2011) 1080p [Half OverUnder]

Шрами 3D / Paranormal Xperience 3D (2011) 1080p [Half OverUnder]


Жанр: жахи, триллер
Країна: Іспанія



Кіностудія / кінокомпанія: Chromosome 22 FILMS
Режисер: Сержі Візкано
Актори: Амайя Саламанка, Максі Іглесіас, Лучо Фернандес, Альба Рібас, Урсула Корберо

Сюжет:
П'ятеро студентів медичного інституту відправляються в покинуту мережу печер, де, за легендою, досі блукає привид померлого лікаря. Молоді люди впевнені, що зустрічі з паранормальним у наш сучасний вік - не більш ніж гра уяви. Та й експедиція організована виключно заради дослідження міфів про людську підсвідомість. Але, опинившись у печерах, мандрівники несподівано починають гинути один за іншим найстрашнішими способами...


Тривалість: 01:30:13
Якість: 1080p
Відео:
кодек:

розмір кадру: 1920х1080
бітрейт: 8491 Kbps
формат 3D: Half OverUnder / Вертикальна анаморфна стереопара
порядок ракурсів: лівий ракурс перший

Аудіо:
мова: українська
переклад: багатоголосий закадровий
кодек: 5.1
бітрейт: 448 кб/с

MediaInfo

General
Unique ID : 205328241787561872876394735010202793586 (0x9A78C7EAF18F9AA896EBC846E3BC3672)
Complete name : W:\Фільми\Paranormal Xperience 3D (2011) AVC Ukr.mkv
Format : Matroska
Format version : Version 2
File size : 5.75 GiB
Duration : 1h 30mn
Overall bit rate : 9 124 Kbps
Movie name : Paranormal Xperience (3D) 2011 (ash61)
Encoded date : UTC 2012-06-18 13:00:23
Writing application : mkvmerge v5.6.0 ('Kenya Kane') built on May 27 2012 16:44:04
Writing library : libebml v1.2.3 + libmatroska v1.3.0

Video
ID : 1
Format : AVC
Format/Info : Advanced Video Codec
Format profile : [email protected]
Format settings, CABAC : Yes
Format settings, ReFrames : 4 frames
Codec ID : V_MPEG4/ISO/AVC
Duration : 1h 30mn
Bit rate : 8 494 Kbps
Width : 1 920 pixels
Height : 1 080 pixels
Display aspect ratio : 16:9
Frame rate : 23.976 fps
Color space : YUV
Chroma subsampling : 4:2:0
Bit depth : 8 bits
Scan type : Progressive
Bits/(Pixel*Frame) : 0.171
Stream size : 5.35 GiB (93%)
Title : by ash61
Writing library : core 119 r2106 07efeb4
Encoding settings : cabac=1 / ref=4 / deblock=1:-3:-3 / analyse=0x3:0x113 / me=umh / subme=9 / psy=1 / psy_rd=1.00:0.15 / mixed_ref=1 / me_range=16 / chroma_me=1 / trellis=2 / 8x8dct=1 / cqm=0 / deadzone=21,11 / fast_pskip=1 / chroma_qp_offset=-3 / threads=3 / sliced_threads=0 / nr=0 / decimate=1 / interlaced=0 / bluray_compat=0 / constrained_intra=0 / bframes=6 / b_pyramid=2 / b_adapt=2 / b_bias=0 / direct=3 / weightb=1 / open_gop=0 / weightp=2 / keyint=250 / keyint_min=23 / scenecut=40 / intra_refresh=0 / rc_lookahead=60 / rc=crf / mbtree=1 / crf=18.0 / qcomp=0.70 / qpmin=0 / qpmax=69 / qpstep=4 / vbv_maxrate=40000 / vbv_bufsize=40000 / crf_max=0.0 / nal_hrd=none / ip_ratio=1.40 / aq=1:0.70
Default : Yes
Forced : No

Audio
ID : 2
Format : AC-3
Format/Info : Audio Coding 3
Mode extension : CM (complete main)
Muxing mode : Header stripping
Codec ID : A_AC3
Duration : 1h 30mn
Bit rate mode : Constant
Bit rate : 448 Kbps
Channel(s) : 6 channels
Channel positions : Front: L C R, Side: L R, LFE
Sampling rate : 48.0 KHz
Bit depth : 16 bits
Compression mode : Lossy
Stream size : 289 MiB (5%)
Language : Ukrainian
Default : Yes
Forced : Yes

Menu
00:00:00.000 : :1
00:06:35.854 : :2
00:10:04.813 : :3
00:14:39.253 : :4
00:19:37.134 : :5
00:26:39.097 : :6
00:34:44.291 : :7
00:40:34.641 : :8
00:45:53.376 : :9
00:50:33.489 : :10
00:55:55.852 : :11
01:00:20.909 : :12
01:06:07.797 : :13
01:12:58.249 : :14
01:17:00.574 : :15
01:21:48.237 : :16




Відео виконане в форматі 3D! Для перегляду потрібні анагліфні окуляри та стереоплеєр!

Усі релізи у форматі 3D
Інструкції щодо перегляду відео у форматі 3D


Скріншоти







Джерело: rutracker.org і hurtom.com (звук з роздачі vamp69)
Особиста оцінка: 5 - дивитись можна
[/color]


 Трекер:    Зареєстрований   

Завантажити / скачати фільм українською



відео для новачків



 Зареєстрований:   2012-06-18 15:19
 Розмір:   5.75 GB 
 Оцінка фільму:   7/10 (Голосів: 4)
   
taras1994 
Почесний оцифрувальник літератури


З нами з: 23.03.12
Востаннє: 30.11.16
Повідомлень: 5096

2012-06-16 14:14  
Актори хоть вижили? А то я десь, щось, колись чув, що актори якогось іншого фільму жахів померли після фільму.
10alexs 
VIP


З нами з: 26.02.09
Востаннє: 10.12.16
Повідомлень: 296

2012-06-16 14:24  
taras1994
Я їх відтоді не бачив Wide grin

leroykendall 
Модератор HD


З нами з: 03.01.11
Востаннє: 20.11.16
Повідомлень: 749

2012-06-17 08:32  
Треба додати MediaInfo.

Тема повинна бути перейминована: Шрами 3D / Paranormal Xperience 3D (2011) 1080p [Half OverUnder]

leroykendall 
Модератор HD


З нами з: 03.01.11
Востаннє: 20.11.16
Повідомлень: 749

2012-06-17 14:40  
Кодек відео:

10alexs написано:
Muxing mode : Header stripping

Треба перезібрати без цієї опції, бо порушується пункт 2.3 правил HD: http://toloka.to/t20052

leroykendall 
Модератор HD


З нами з: 03.01.11
Востаннє: 20.11.16
Повідомлень: 749

2012-06-18 20:10  
10alexs написано:

Якість: AVC
Відео:
кодек: AVC

Якість: 1080p
кодек:

igu 
Новенький


З нами з: 19.01.11
Востаннє: 27.07.14
Повідомлень: 4

2013-02-19 22:52  
Люди поставте на роздачу бо вже 3 тижні качаю!
x530 
Новенький


З нами з: 22.09.10
Востаннє: 09.12.16
Повідомлень: 13

2014-08-08 17:45  
в описі потрібно виправити "Відео виконане в форматі 3D! Для перегляду потрібні анагліфні окуляри та стереоплеєр! "
якби не глянув скріншоти, то і не качав би, бо потрібна стереопара, а не анагліф

10alexs 
VIP


З нами з: 26.02.09
Востаннє: 10.12.16
Повідомлень: 296

2014-08-14 18:12  
x530 написано:
формат 3D: Half OverUnder / Вертикальна анаморфна стереопара

це якби шаблон Гуртом, і підсказка для новачків 3д. В релізі зазначено "формат 3D: Half OverUnder / Вертикальна анаморфна стереопара "

Ваш часовий пояс: GMT + 2 Години

Нова тема   Відповісти