Завантажити та скачати торренти українською


Оголена спокуса / Wanderlust (2012) 720p Ukr/Eng | Sub Eng | Line

Нові коментарі

Нова тема   Відповісти
Автор Повідомлення
xfsthe 
Оцифрування книг Гуртом
Оцифрування книг Гуртом


З нами з: 13.02.11
Востаннє: 07.12.16
Повідомлень: 279

2012-06-14 01:11  
Оголена спокуса / Wanderlust (2012) 720p Ukr/Eng | Sub Eng | Line

Оголена спокуса / Wanderlust (2012) 720p Ukr/Eng | Sub Eng | Line


Жанр: комедія
Країна: США



Кіностудія / кінокомпанія: Universal Pictures International, A Hot Dog, Apatow Productions, Relativity Media
Режисер: Девід Вейн
Актори: Пол Радд, Дженніфер Еністон, Джастін Терокс, Алан Альда, Мадін Акерман та інші.

Сюжет:
Коли вир звичайної буденності остаточно затягує, то є два життєвих шляхи – піддатися потоку, або почати щось змінювати. Особливо, якщо самі обставини штовхають зробити вибір. І молода пара його зробила. Вони вирішили подивитися навколо і дізнатися чим дихають, у прямому й переносному сенсі, ті, що відрізняються від звичайних "нормальних" людей. Експерименти починаються....


Тривалість: 01:38:06
Якість: 720p
Відео:
розмір кадру: 1280 х 688
бітрейт: 4 872 кб/с
кодек:

Аудіо #1:
мова: українська | Line
переклад: професійний дубльований
кодек: 2.0
бітрейт: 384 кб/с

Аудіо #2:
мова: англійська
переклад: оригінал
кодек: 5.1
бітрейт: 1510 кб/с

Субтитри #1:
мова: англійська
тип: програмні (м'які)
формат: *.srt
MediaInfo

General
Unique ID : 92845667047811356015231317069199705798 (0x45D96CCF403F0DD9674F7468E47E06C6)
Complete name : /media/soft/Wanderlust (2012) [ukr-Line,eng] sub[eng] 720p.mkv
Format : Matroska
Format version : Version 2
File size : 4.64 GiB
Duration : 1h 38mn
Overall bit rate : 6 763 Kbps
Movie name : Оголена спокуса / Wanderlust (2012) 720p
Encoded date : UTC 2012-06-13 09:25:02
Writing application : mkvmerge v5.1.0 ('And so it goes') built on Feb 1 2012 11:31:23
Writing library : libebml v1.2.2 + libmatroska v1.3.0

Video
ID : 1
Format : AVC
Format/Info : Advanced Video Codec
Format profile : [email protected]
Format settings, CABAC : Yes
Format settings, ReFrames : 5 frames
Codec ID : V_MPEG4/ISO/AVC
Duration : 1h 38mn
Bit rate : 4 872 Kbps
Width : 1 280 pixels
Height : 688 pixels
Display aspect ratio : 1.85:1
Frame rate : 23.976 fps
Color space : YUV
Chroma subsampling : 4:2:0
Bit depth : 8 bits
Scan type : Progressive
Bits/(Pixel*Frame) : 0.231
Stream size : 3.25 GiB (70%)
Title : Оголена спокуса / Wanderlust (2012) 720p
Writing library : core 125 r2200 999b753
Encoding settings : cabac=1 / ref=5 / deblock=1:0:0 / analyse=0x3:0x133 / me=umh / subme=7 / psy=1 / psy_rd=1.00:0.00 / mixed_ref=1 / me_range=16 / chroma_me=1 / trellis=1 / 8x8dct=1 / cqm=0 / deadzone=21,11 / fast_pskip=0 / chroma_qp_offset=-2 / threads=12 / lookahead_threads=2 / sliced_threads=0 / nr=0 / decimate=1 / interlaced=0 / bluray_compat=0 / constrained_intra=0 / bframes=3 / b_pyramid=2 / b_adapt=1 / b_bias=0 / direct=1 / weightb=1 / open_gop=0 / weightp=2 / keyint=250 / keyint_min=23 / scenecut=40 / intra_refresh=0 / rc_lookahead=40 / rc=2pass / mbtree=1 / bitrate=4872 / ratetol=1.0 / qcomp=0.60 / qpmin=0 / qpmax=69 / qpstep=4 / cplxblur=20.0 / qblur=0.5 / ip_ratio=1.40 / aq=1:1.00
Language : English
Default : Yes
Forced : Yes

Audio #1
ID : 2
Format : AC-3
Format/Info : Audio Coding 3
Mode extension : CM (complete main)
Format settings, Endianness : Big
Codec ID : A_AC3
Duration : 1h 38mn
Bit rate mode : Constant
Bit rate : 384 Kbps
Channel(s) : 2 channels
Channel positions : Front: L R
Sampling rate : 48.0 KHz
Bit depth : 16 bits
Compression mode : Lossy
Stream size : 269 MiB (6%)
Title : 2.0 @ 384 kbps | Line
Language : Ukrainian
Default : Yes
Forced : Yes

Audio #2
ID : 3
Format :
Format/Info : Digital Theater Systems
Codec ID : A_DTS
Duration : 1h 38mn
Bit rate mode : Constant
Bit rate : 1 510 Kbps
Channel(s) : 6 channels
Channel positions : Front: L C R, Side: L R, LFE
Sampling rate : 48.0 KHz
Bit depth : 24 bits
Compression mode : Lossy
Stream size : 1.03 GiB (22%)
Title : 5.1 @ 1510 kbps
Language : English
Default : No
Forced : No

Text
ID : 4
Format : UTF-8
Codec ID : S_TEXT/UTF8
Codec ID/Info : UTF-8 Plain Text
Language : English
Default : No
Forced : No
Світлини:






Джерело: &
Особиста оцінка: не дивився.


Подяка панові Skiff за українську звукову доріжку.


 Трекер:    Зареєстрований   

Завантажити / скачати фільм українською



відео для новачків



 Зареєстрований:   2012-06-14 01:11
 Розмір:   4.64 GB 
 Оцінка фільму:   9.9/10 (Голосів: 16)
   
Інші релізи
   Оголена спокуса / Wanderlust (2012) AVC Ukr/Eng AngryBirdsUA  0 / 0   2.27 GB   2012-06-25 08:01 
   Оголена спокуса / Wanderlust (2012) Ukr/Eng | Line | [iPhone / iPod Touch] The_Marlboro  0 / 0   873 MB   2012-06-20 14:46 
   Оголена спокуса / Wanderlust (2012) Skiff  6 / 0   1.41 GB   2012-06-12 18:46 
mishok241 
Новенький


З нами з: 26.12.09
Востаннє: 28.11.16
Повідомлень: 6

2012-06-14 08:19  
Буде реліз під IPOD 4g ?? Rolleyes (2)
xfsthe 
Оцифрування книг Гуртом
Оцифрування книг Гуртом


З нами з: 13.02.11
Востаннє: 07.12.16
Повідомлень: 279

2012-06-14 09:34  
mishok241 написано:
Буде реліз під IPOD 4g ?? Rolleyes (2)

від мене - ні

VitNi 
Частий відвідувач


З нами з: 05.05.12
Востаннє: 08.12.16
Повідомлень: 39

2012-06-14 19:50  
Дебільне кіно...
Skiff 
музика
музика


З нами з: 12.11.07
Востаннє: 08.12.16
Повідомлень: 3051

2012-06-14 19:57  
xfsthe написано:
багатоголосий закадровий

Так наче ж дубльований.

xfsthe 
Оцифрування книг Гуртом
Оцифрування книг Гуртом


З нами з: 13.02.11
Востаннє: 07.12.16
Повідомлень: 279

2012-06-14 22:52  
Skiff написано:
Так наче ж дубльований.

так, недогледів. фільм професійний дубльований

vital4ik2008 
Новенький


З нами з: 26.06.12
Востаннє: 27.10.14
Повідомлень: 2

2012-09-10 15:55  
ФІЛЬМ СПОДОБАВСЯ! РЕКОМЕНДУЮ ДО ПЕРЕГЛЯДУ!!!))
DеLight 
Відео Гуртом - фільмокрай
Відео Гуртом - фільмокрай


З нами з: 24.08.11
Востаннє: 17.11.16
Повідомлень: 664

2012-09-29 21:58  
Кумедний фільм, звичайно сюжет простенький, але іноді хочеться розслабитися і посміятися, переглянувши щось таке.
Ваш часовий пояс: GMT + 2 Години

Нова тема   Відповісти