Завантажити та скачати торренти українською


V. A. - Фестиваль "Рок Екзистенція 97" (1997) [FLAC] | Rock

Нові коментарі

Нова тема   Відповісти
Останній раз роздавалося natashelka (2016-12-05)
Автор Повідомлення
gosha.samovar 
VIP


З нами з: 08.09.10
Востаннє: 06.12.16
Повідомлень: 400

2012-06-11 20:33  
V. A. - Фестиваль "Рок Екзистенція 97" (1997) [FLAC] | Rock

V. A. - Фестиваль "Рок Екзистенція 97" (1997) [FLAC] | Rock


Стиль: Rock
Сайти: Офіційний сайт
Видавець: АРТВЕЛЕС
Пісні:
    01. Стоп-Степ / Дережабель
    02. Мертвий Півень / Поцілунок
    03. So... / Зелена казка
    04. Всяк випадок / Я це
    05. Армада / Адреналін
    06. Брати Блюзу / Інтерлюдія
    07. Плач Єремії / Срібне поле
    08. Океан Ельзи / Ти забула давно
    09. Актус / Червоні вершники
    10. Кому Вниз / Навою
    11. ВВ / Гармонія
EAC Log
Exact Audio Copy V1.0 beta 3 from 29. August 2011

Отчёт EAC об извлечении, выполненном 11. июня 2012, 20:12

Various Artists / Фестиваль "Рок Екзистенція 97"

Дисковод: PHILIPS SPD2519T Adapter: 2 ID: 0

Режим чтения : Достоверность
Использование точного потока : Да
Отключение кэша аудио : Да
Использование указателей C2 : Нет

Коррекция смещения при чтении : 6
Способность читать области Lead-in и Lead-out : Нет
Заполнение пропущенных сэмплов тишиной : Да
Удаление блоков с тишиной в начале и конце : Нет
При вычислениях CRC использовались нулевые сэмплы : Да
Интерфейс : Встроенный Win32-интерфейс для Win NT/2000

Выходной формат : Пользовательский кодировщик
Выбранный битрейт : 1024 kBit/s
Качество : Высокий
Добавление ID3-тега : Нет
Утилита сжатия : D:\soft_2\EAC\Exact Audio Copy\Flac\flac.exe
Дополнительные параметры : -V -8 -T "Date=%year%" -T "Genre=%genre%" %source%

TOC извлечённого CD

Трек | Старт | Длительность | Начальный сектор | Конечный сектор
---------------------------------------------------------------------
1 | 0:00.00 | 4:09.17 | 0 | 18691
2 | 4:09.17 | 4:33.28 | 18692 | 39194
3 | 8:42.45 | 3:49.10 | 39195 | 56379
4 | 12:31.55 | 8:08.20 | 56380 | 92999
5 | 20:40.00 | 5:51.52 | 93000 | 119376
6 | 26:31.52 | 6:00.13 | 119377 | 146389
7 | 32:31.65 | 5:34.00 | 146390 | 171439
8 | 38:05.65 | 4:47.60 | 171440 | 193024
9 | 42:53.50 | 2:23.17 | 193025 | 203766
10 | 45:16.67 | 5:34.28 | 203767 | 228844
11 | 50:51.20 | 3:06.15 | 228845 | 242809

Характеристики диапазона извлечения и сообщения об ошибках

Выбранный диапазон

Имя файла E:\Музіка!\from EAC\Various Artists - Фестиваль ''Рок Екзистенція 97''.wav

Пиковый уровень 100.0 %
Скорость извлечения 2.3 X
Качество диапазона 100.0 %
CRC теста 41EBA65C
CRC копии 41EBA65C
Копирование... OK

Ошибок не произошло

AccurateRip: сводка

Трек 1 отсутствует в базе данных
Трек 2 отсутствует в базе данных
Трек 3 отсутствует в базе данных
Трек 4 отсутствует в базе данных
Трек 5 отсутствует в базе данных
Трек 6 отсутствует в базе данных
Трек 7 отсутствует в базе данных
Трек 8 отсутствует в базе данных
Трек 9 отсутствует в базе данных
Трек 10 отсутствует в базе данных
Трек 11 отсутствует в базе данных

Ни одного трека нет в базе AccurateRip

Конец отчёта

==== Контрольная сумма отчёта FB4F02C7C9CF49D31A49DE968C43234A5D65830253961D980ADF8F97D7561065 ====
Спектр
Тривалість: 00:53:57
Мова: українська
Аудіо-кодек: FLAC
Бітрейт: 959 кб/с
Джерело: власний ріп власного CD (велика подяка Володимиру з Дрогобича)
Додаткова інформація
Вікі про фестиваль:
http://uk.wikipedia.org/wiki/%D0%A0%D0%BE%D0%BA-%D0%95%D0%BA%D0%B7%D0%B8%D1%81%D1%82%D0%B5%D0%BD%D1%86%D1%96%D1%8F
Якщо Ви справді бажаєте підтримати українське - після прослуховування, якщо музика вам сподобалась, придбайте ліцензійний диск. Підтримаймо вітчизняних виконавців!


Срібний реліз (на рейтинг впливає 50% завантаженого)
 Трекер:    Зареєстрований   

Завантажити / скачати українську музику



відео для новачків



 Зареєстрований:   2012-06-11 20:33
 Розмір:   372 MB 
 Оцінка музики:   10/10 (Голосів: 10)
   
Alkslay 
Новенький


З нами з: 01.01.10
Востаннє: 11.09.16
Повідомлень: 1

2012-11-22 19:02  
Була ця касета в 98-му, яка вражала своїм відмінним оформленням. Тому виконавців вже підтримав.
kelepm 
Новенький


З нами з: 28.12.11
Востаннє: 20.11.16
Повідомлень: 2

2014-01-16 00:47  
"Поцілунок" там просто бомбовий :-)
Ваш часовий пояс: GMT + 2 Години

Нова тема   Відповісти