Завантажити та скачати торренти українською


Труднощі перекладу / Lost in Translation (2003) 1080р Ukr/Eng | Sub Eng

Нові коментарі

Нова тема   Відповісти
Автор Повідомлення
Omikron 
VIP


З нами з: 03.01.12
Востаннє: 30.11.16
Повідомлень: 297

2012-06-11 16:11  
Труднощі перекладу / Lost in Translation (2003) 1080р Ukr/Eng | Sub Eng



Альтернативний постер



Жанр: драма, комедія
Країна: США, Японія



Кіностудія / кінокомпанія: American Zoetrope, Elemental Films, Focus Features, Tohokashinsha Film Company Ltd., Gray Matter FX, Rods & Cones
Режисер:Софія Коппола
Актори: Скарлетт Йоханссон, Білл Мюррей, Акіко Такешіта, Казуко Шібата, Акіра Ямагучі, Кетрін Лемберт, Франсуа Ду Бойс

Сюжет:
Токіо, ніч, фешенебельний бар дорогого готелю ... Тут, рятуючись від безсоння, зустрічаються двоє американців: телевізійний актор Боб Гарріс і симпатична молода жінка Шарлотта.

Познайомившись, вони разом відправляються у подорож японською столицею. Під час своєї багатогодинної прогулянки Боб і Шарлотта потрапляють в забавні історії та несподівані перипетії, знайомлячись з місцевими жителями.

Життя східного світу відкривається американцям яскравими і незнайомими гранями, допомагає виявити в собі віру в приголомшливі людські можливості. А випадкові зустрічі стають дуже потрібними і важливими для осягнення життя.


Перекладено та озвучено студією "Омікрон" на замовлення HURTOM.COM


Тривалість: 01:41:46
Якість:
Відео:

кодек:
розмір кадру: 1920x1040
бітрейт: 13 Мб/с

Аудіо # 1:
мова: українська | студія Омікрон
переклад: багатоголосий закадровий
кодек: 5.1
бітрейт: 1510 кб/с

Аудіо # 2:
мова: англійська
переклад: оригінал
кодек: 5.1
бітрейт: 1510 кб/с

Субтитри#1:
мова: англійська
тип: програмні (м'які)
формат: *.srt

Скріншоти












звіт MediaInfo


Format : Matroska
Format version : Version 2
File size : 11.4 GiB
Duration : 1h 41mn
Overall bit rate : 16.0 Mbps
Movie name : Lost in Translation (2003)
Encoded date : UTC 2012-06-11 12:09:19
Writing application : mkvmerge v2.9.0 ('Moanin'') built on May 22 2009 17:46:31
Writing library : libebml v0.7.7 + libmatroska v0.8.1

Video
ID : 1
Format : AVC
Format/Info : Advanced Video Codec
Format profile : [email protected]
Format settings, CABAC : Yes
Format settings, ReFrames : 4 frames
Codec ID : V_MPEG4/ISO/AVC
Duration : 1h 41mn
Bit rate : 13.0 Mbps
Width : 1 920 pixels
Height : 1 040 pixels
Display aspect ratio : 16:9
Frame rate : 23.976 fps
Color space : YUV
Chroma subsampling : 4:2:0
Bit depth : 8 bits
Scan type : Progressive
Bits/(Pixel*Frame) : 0.272
Stream size : 9.01 GiB (79%)
Title : Lost.in.Translation.2003.1080p.Bluray..-LOUiS
Writing library : core 112 r1834 a51816a
Encoding settings : cabac=1 / ref=4 / deblock=1:-3:-3 / analyse=0x3:0x113 / me=tesa / subme=10 / psy=1 / psy_rd=0.80:0.00 / mixed_ref=1 / me_range=32 / chroma_me=1 / trellis=2 / 8x8dct=1 / cqm=0 / deadzone=21,11 / fast_pskip=0 / chroma_qp_offset=-2 / threads=12 / sliced_threads=0 / nr=0 / decimate=0 / interlaced=0 / constrained_intra=0 / bframes=6 / b_pyramid=2 / b_adapt=2 / b_bias=0 / direct=3 / weightb=1 / open_gop=0 / weightp=2 / keyint=250 / keyint_min=23 / scenecut=40 / intra_refresh=0 / rc_lookahead=40 / rc=2pass / mbtree=1 / bitrate=12999 / ratetol=1.0 / qcomp=0.60 / qpmin=10 / qpmax=51 / qpstep=4 / cplxblur=20.0 / qblur=0.5 / ip_ratio=1.40 / aq=1:0.70
Default : Yes
Forced : No

Audio #1
ID : 2
Format :
Format/Info : Digital Theater Systems
Codec ID : A_DTS
Duration : 1h 41mn
Bit rate mode : Constant
Bit rate : 1 510 Kbps
Channel(s) : 6 channels
Channel positions : Front: L C R, Side: L R, LFE
Sampling rate : 48.0 KHz
Bit depth : 24 bits
Compression mode : Lossy
Stream size : 1.07 GiB (9%)
Title : MVO Omikron Studio for Hurtom
Language : Ukrainian
Default : Yes
Forced : No

Audio #2
ID : 3
Format :
Format/Info : Digital Theater Systems
Codec ID : A_DTS
Duration : 1h 41mn
Bit rate mode : Constant
Bit rate : 1 510 Kbps
Channel(s) : 6 channels
Channel positions : Front: L C R, Side: L R, LFE
Sampling rate : 48.0 KHz
Bit depth : 24 bits
Compression mode : Lossy
Stream size : 1.07 GiB (9%)
Title : Lost.in.Translation.2003.1080p.Bluray..-LOUiS
Language : English
Default : No
Forced : No

Text
ID : 4
Format : UTF-8
Codec ID : S_TEXT/UTF8
Codec ID/Info : UTF-8 Plain Text
Language : English
Default : Yes
Forced : No

Menu
00:00:00.000 : :00:00:00.000
00:01:09.569 : :00:01:09.569
00:06:07.158 : :00:06:07.158
00:08:30.427 : :00:08:30.427
00:11:59.302 : :00:11:59.302
00:16:05.214 : :00:16:05.214
00:20:01.784 : :00:20:01.784
00:26:15.741 : :00:26:15.741
00:30:44.843 : :00:30:44.843
00:36:39.656 : :00:36:39.656
00:41:28.069 : :00:41:28.069
00:48:24.026 : :00:48:24.026
00:55:20.400 : :00:55:20.400
00:58:35.637 : :00:58:35.637
00:59:52.255 : :00:59:52.255
01:05:54.576 : :01:05:54.576
01:13:24.400 : :01:13:24.400
01:17:34.108 : :01:17:34.108
01:22:09.133 : :01:22:09.133
01:24:21.848 : :01:24:21.848
01:25:54.900 : :01:25:54.900
01:29:08.385 : :01:29:08.385
01:32:01.266 : :01:32:01.266
01:35:57.418 : :01:35:57.418
Інформація про українську доріжку

Українську озвучку створено студією Омікрон на замовлення Hurtom.com в рамках проекту "Хочеш кіно українською? Замовляй!"

Детальніше про проект.


Дякуємо користувачам, що фінансово допомогли проекту:
vifilo, yuvial, Zoryan71, bookovina, sunshadow, novns, Анонім, TriVVet, Qualcuno, ValicV, makata, painz, Шейнога Станіслав, Відьмачечок, sl.adamenko, Ihorco, vladyk, vitbol, k1k1k1, oleh_oleh, mikrom, roman.paint, chuba001, merlin_zaraza, daedan, zeleneserce, Yareban, BrMM, maksimka9112007, bsdkom, avatararij, Thaddeus, Slavko Uzhhorod, OLENKA1980, yarik_ratnik, brizident, parovoz, glogus, indiana7, rakab, grim86, bondar, ratiborsky, hello_world, Klymkiv_a, Mitrukhin, govjiogter, loiknazar, Анонім, zanevsky, КОЗАК СЕРГІЙ, "Мерзотники", Thaddeus, newvolya, Макрос, Loki, romm77, maxus.bender, Arhont, Kalynka Rosso, molotokk, Sn00pY_UA, busbus, гілка, Qualcuno, Rost3, анонім, panernest, tyma1, Vasill, орестт, vkozak77, sanyatyoma, zinkognito, fishMD, olfed111, ThugRx, serzholino16x, Yarrm, zolotoy, Volodymyr Shpikulov, partos, MisterR, lan44er, StiN, pooh007, gitaralover, Dmytro D, Avis, ivasykvv, TarasTaras, Bzick, Romdoc, kopycom, ExFinder, Roman N, B_Volodumur, alexandr_b, thefir, Dimka, somnambula, Оксана Середа, Роман Бліхарський, MarianB, sania2011, Makovej, ORFEO, Dim-ON, demydd, igor911, Golota, ppk21, MutuLI, Анонім, Джерх, Гривник, Chaka_bum, elwolf, virtus8hur, Sergo_k_s_v, NemoInFire, willian
Також дякуємо користувачам, що надали фінансову допомогу, але побажали бути анонімними.
Дакуємо трекеру Torrents.net.ua за підтримку проекту.

Детальніше про збір грошей.



Авторський реліз (завантажувати можна без реєстрації)
 Трекер:    Зареєстрований   

Завантажити / скачати фільм українською



відео для новачків



 Зареєстрований:   2012-06-12 08:07
 Розмір:   11.39 GB 
 Оцінка фільму:   8.5/10 (Голосів: 11)
   
ratbol 
Модератор HD


З нами з: 03.02.09
Востаннє: 01.12.16
Повідомлень: 1088

2012-06-12 15:44  
А субтитрів ніхто не має?
Ваш часовий пояс: GMT + 2 Години

Нова тема   Відповісти