Завантажити та скачати торренти українською


Легіон / Legion (2010) 1080p Ukr/Eng | Sub Ukr/Eng

Нові коментарі

Нова тема   Відповісти
Автор Повідомлення
11FrYkT 
Модератор відео


З нами з: 20.02.11
Востаннє: 08.12.16
Повідомлень: 3128

2012-06-11 14:53  
Легіон / Legion (2010) 1080p Ukr/Eng | Sub Ukr/Eng

Легіон / Legion (2010)  1080p Ukr/Eng | Sub Ukr/Eng

«І йде він з десятками тисяч ангелів своїх створити суд над усіма. І ім'я їм ... »



Жанр: фантастика, бойовик, трилер
Країна: США



Кіностудія / кінокомпанія: Соні Пікчерс / Sony Pictures
Режисер: Скотт Чарльз Стюарт (Scott Charles Stewart)
Актори: Пол Беттані / Paul Bettany, Лукас Блек / Lucas Black, Тайріз Гібсон / Tyrese Gibson, Едріанн Палікі / Adrianne Palicki, Чарльз С. Даттон / Charles S. Dutton, Кевін Дюран / Kevin Durand, Джон Тенні / Jon Tenney, Уілла Холленд / Willa Holland, Кейт Уолш / Kate Walsh, Денніс Куейд / Dennis Quaid

Сюжет:
Бог остаточно зневірився в людстві і послав ангелів смерті стерти своє творіння з лиця землі. На захист людей встав лише архангел Михаїл, об'єднавши під своїм командуванням декілька ізгоїв, які в кафе посеред пустелі терпляче чекають на народження Месії.


Тривалість: 01:40:07
Якість:
Відео:
кодек:
розмір кадру: 1920 x 800
бітрейт: 12.6 Mб/с

Аудіо # 1:
мова: українська
переклад: багатоголосий закадровий
кодек: 2.0
бітрейт: 192 кб/с

Аудіо # 2:
мова: англійська
переклад: оригінал
кодек: 5.1
бітрейт: 1536 кб/с

Джерело озвучення:


Субтитри:
мова: українська
тип: програмні (м'які)
формат: *.srt

Субтитри:
мова: англійська
тип: програмні (м'які)
формат: *.srt
MediaInfo
Код:
Legion.2010.BluRay.1080p...mkv
   General
      UniqueID : 204288153139442466553446286414292008284 (0x99B07796958ABE3F88A953BF20393D5C)
      Complete name : G:\Legion.2010.BluRay.1080p...mkv
      Format : Matroska
      File size : 9.98 GiB
      Duration : 1h 40mn
      Overall bit rate : 14.3 Mbps
      Encoded date : UTC 2012-06-11 11:57:28
      Writing application : mkvmerge v4.9.1 ('Ich will') зібрано Jul 11 2011 23:53:15
      Writing library : libebml v1.2.1 + libmatroska v1.1.1
   Video #1
      ID : 1
      Format : AVC
      Format/Info : Advanced Video Codec
      Format profile : [email protected]
      Format settings, CABAC : Yes
      Format settings, ReFrames : 5 frames
      Codec ID : V_MPEG4/ISO/AVC
      Duration : 1h 40mn
      Bit rate : 12.6 Mbps
      Width : 1 920 pixels
      Height : 800 pixels
      Display aspect ratio : 2.40:1
      Frame rate : 23.976 fps
      Color space : YUV
      Chroma subsampling : 4:2:0
      Bit depth : 8 bits
      Scan type : Progressive
      Bits/(Pixel*Frame) : 0.342
      Stream size : 8.60 GiB (86%)
      Title : Legion.2010.BluRay.1080p.DTSMA.
      Writing library : core 88 r1471 1144615
      Encoding settings : cabac=1 / ref=5 / deblock=1:-3:-3 / analyse=0x3:0x113 / me=umh / subme=10 / psy=1 / psy_rd=1.05:0.10 / mixed_ref=1 / me_range=32 / chroma_me=1 / trellis=2 / 8x8dct=1 / cqm=0 / deadzone=21,11 / fast_pskip=0 / chroma_qp_offset=-2 / threads=12 / sliced_threads=0 / nr=0 / decimate=1 / mbaff=0 / constrained_intra=0 / bframes=3 / b_pyramid=2 / b_adapt=2 / b_bias=0 / direct=3 / wpredb=1 / wpredp=2 / keyint=250 / keyint_min=25 / scenecut=40 / intra_refresh=0 / rc_lookahead=50 / rc=2pass / mbtree=1 / bitrate=12595 / ratetol=2.0 / qcomp=0.70 / qpmin=10 / qpmax=51 / qpstep=4 / cplxblur=20.0 / qblur=0.5 / vbv_maxrate=50000 / vbv_bufsize=50000 / ip_ratio=1.40 / aq=1:1.00
      Language : English
   Audio #2
      ID : 2
      Format : AC-3
      Format/Info : Audio Coding 3
      Mode extension : CM (complete main)
      Codec ID : A_AC3
      Duration : 1h 40mn
      Bit rate mode : Constant
      Bit rate : 192 Kbps
      Channel(s) : 2 channels
      Channel positions : Front: L R
      Sampling rate : 48.0 KHz
      Bit depth : 16 bits
      Compression mode : Lossy
      Stream size : 138 MiB (1%)
      Title : Багатоголосий 1+1
      Language : Ukrainian
   Audio #3
      ID : 3
      Format :
      Format/Info : Digital Theater Systems
      Codec ID : A_DTS
      Duration : 1h 40mn
      Bit rate mode : Constant
      Bit rate : 1 510 Kbps
      Channel(s) : 6 channels
      Channel positions : Front: L C R, Side: L R, LFE
      Sampling rate : 48.0 KHz
      Bit depth : 24 bits
      Compression mode : Lossy
      Stream size : 1.06 GiB (11%)
      Title : 5.1 @ 1536 kbps
      Language : English
   Text #4
      ID : 4
      Format : UTF-8
      Codec ID : S_TEXT/UTF8
      Codec ID/Info : UTF-8 Plain Text
      Language : Ukrainian
   Text #5
      ID : 5
      Format : UTF-8
      Codec ID : S_TEXT/UTF8
      Codec ID/Info : UTF-8 Plain Text
      Language : English
Світлини




Особиста оцінка: 8 - мені сподобалос
За допомогу з аудіодоріжкою дякую пану НТН


 Трекер:    Зареєстрований   

Завантажити / скачати фільм українською



відео для новачків



 Зареєстрований:   2012-06-11 14:53
 Розмір:   9.98 GB 
 Оцінка фільму:   8/10 (Голосів: 12)
   
Інші релізи
   Легіон / Legion (2010) 720p-mini 2xUkr/Eng | Sub Ukr/Eng krigg070  2 / 0   2.15 GB   2016-02-22 20:56 
   Легіон / Legion (2010) НТН  4 / 0   1.46 GB   2012-06-11 07:15 
   Легіон / Legion (2010) Eng | Ukr Sub Andick  0 / 0   1.46 GB   2010-06-12 13:30 
Yaroslavovy4 
Свій


З нами з: 25.03.12
Востаннє: 07.12.16
Повідомлень: 96

2012-06-11 15:38  
фільм кака рідкісна))
НТН 
Відео Гуртом - фільмокрай
Відео Гуртом - фільмокрай


З нами з: 25.12.11
Востаннє: 10.11.16
Повідомлень: 2001

2012-06-11 18:35  
Yaroslavovy4
Ну не скажи, тут як кому. Мені фільм дуже сподобався

Yaroslavovy4 
Свій


З нами з: 25.03.12
Востаннє: 07.12.16
Повідомлень: 96

2012-06-11 19:53  
поясни мені що автор хотів донести фільмом! і чому така розвязка?? просто цікава твоя думка, НТН
assman 
VIP


З нами з: 09.11.09
Востаннє: 08.12.16
Повідомлень: 375

2012-06-11 21:14  
11FrYkT написано:
він зі своїми десятками тисяч ангелів своїх

Думаю одне з них є зайвим.

Мені фільм не сподобався, бо дуже вже примітивним є сюжет a la ми сховались тут а вони кілька разів на нас нападають. Можна (і я був би тому дуже радий) було зробити щось оригінальніше.

wolverine 
VIP


З нами з: 26.09.09
Востаннє: 07.12.16
Повідомлень: 320

2012-06-12 19:22  
кіно непогане, хоча б тому що не дуже схоже за сюжетом на інші. Дякую за 1080р, дуже чекаю на 720р або міні)
11FrYkT 
Модератор відео


З нами з: 20.02.11
Востаннє: 08.12.16
Повідомлень: 3128

2012-06-12 19:24  
wolverine, будь ласка
wolverine 
VIP


З нами з: 26.09.09
Востаннє: 07.12.16
Повідомлень: 320

2012-06-19 09:07  
викладіть окремо доріжку до цього релізу, дуже прошу)
11FrYkT 
Модератор відео


З нами з: 20.02.11
Востаннє: 08.12.16
Повідомлень: 3128

2012-06-19 16:12  
natashelka 
VIP


З нами з: 23.05.10
Востаннє: 08.12.16
Повідомлень: 441

2013-10-29 21:30  
Фільм прикольний. Архангели круті. Раджу до перегляду
Ваш часовий пояс: GMT + 2 Години

Нова тема   Відповісти