Завантажити та скачати торренти українською


Мачо і Ботан / Джамп Стріт, 21 / 21 Jump Street (2012) 720p Ukr/Eng

Нові коментарі

Нова тема   Відповісти
Автор Повідомлення
11FrYkT 
Модератор відео


З нами з: 20.02.11
Востаннє: 05.12.16
Повідомлень: 3079

2012-06-09 09:29  
Мачо і Ботан / Джамп Стріт, 21 / 21 Jump Street (2012) 720p Ukr/Eng

Мачо і Ботан / Джамп Стріт, 21 / 21 Jump Street (2012) 720p Ukr/Eng

«Операція« Анти-косяк »



Жанр: екшн, комедія
Країна: США



Кіностудія / кінокомпанія: Columbia Pictures, Metro-Goldwyn-Mayer (MGM), Relativity Media, Original Film, Stephen J. Cannell Productions, Cannell Studios
Режисер: Філ Лорд / Phil Lord, Кріс Міллер / Chris Miller
Актори: Джона Хілл / Jonah Hill, Чаннінг Татум / Channing Tatum, Брі Ларсон / Brie Larson, Дейв Франко / Dave Franco, Роб Ріґел / Rob Riggle, ДеРей Девіс / DeRay Davis, Айс К'юб / Ice Cube, Декс Флейм / Dax Flame, Кріс Парнелл / Chris Parnell, Еллі Кемпер / Ellie Kemper, Джейк М. Джонсон / Jake M. Johnson, Нік Оферман / Nick Offerman, Холлі Робінсон Піте / Holly Robinson Peete, Джоні Пембертон / Johnny Pemberton, Стенлі Bонг / Stanley Wong

Сюжет:
Кожне нове молоде покоління практикує свої правила та створює свої ідеали. Останнім часом через надмір свободи молодь стала майже неконтрольованою окремою кастою, де присутність старших авторитетів, м’яко кажучи, недоречна. Ефективна система контролю може бути лише одна – керувати процесом зсередини.

Двоє молодих поліцейських відправляються на надсекретне завдання. Їм належить заново стати учнями середньої школи, в якій процвітає наркоторгівля.


Тривалість: 01:49:37
Якість: 720p
Відео:
кодек:
розмір кадру: 1280 х 528
бітрейт: 4184 кб/с

Аудіо # 1:
мова: українська
переклад: професійний дубльований
кодек: 5.1
бітрейт: 448 кб/с

Аудіо # 2:
мова: англійська
переклад: оригінал
кодек: 5.1
бітрейт: 1536 кб/с

Джерело озвучення:


Субтитри:
мова: англійська[Forced]
тип: програмні (м'які)
формат: *.srt
MediaInfo
Код:
Macho.i.botan.2012...720p.mkv
   General
      UniqueID : 246608077580349439794976608625988309284 (0xB986FCF5099E054199BBCE6C4A259124)
      Complete name : Macho.i.botan.2012...720p.mkv
      Format : Matroska
      File size : 4.70 GiB
      Duration : 1h 49mn
      Overall bit rate : 6 144 Kbps
      Encoded date : UTC 2012-06-09 06:49:02
      Writing application : mkvmerge v4.9.1 ('Ich will') зібрано Jul 11 2011 23:53:15
      Writing library : libebml v1.2.1 + libmatroska v1.1.1
   Video #1
      ID : 1
      Format : AVC
      Format/Info : Advanced Video Codec
      Format profile : [email protected]
      Format settings, CABAC : Yes
      Format settings, ReFrames : 5 frames
      Codec ID : V_MPEG4/ISO/AVC
      Duration : 1h 49mn
      Bit rate : 4 184 Kbps
      Width : 1 280 pixels
      Height : 528 pixels
      Display aspect ratio : 2.40:1
      Frame rate : 23.976 fps
      Color space : YUV
      Chroma subsampling : 4:2:0
      Bit depth : 8 bits
      Scan type : Progressive
      Bits/(Pixel*Frame) : 0.258
      Stream size : 3.11 GiB (66%)
      Title : 21 Jump Street (2012)
      Writing library : core 125 r2200 999b753
      Encoding settings : cabac=1 / ref=5 / deblock=1:0:0 / analyse=0x3:0x133 / me=umh / subme=8 / psy=1 / psy_rd=1.00:0.00 / mixed_ref=1 / me_range=16 / chroma_me=1 / trellis=1 / 8x8dct=1 / cqm=0 / deadzone=21,11 / fast_pskip=1 / chroma_qp_offset=-2 / threads=24 / lookahead_threads=4 / sliced_threads=0 / nr=0 / decimate=1 / interlaced=0 / bluray_compat=0 / constrained_intra=0 / bframes=3 / b_pyramid=2 / b_adapt=1 / b_bias=0 / direct=1 / weightb=1 / open_gop=0 / weightp=2 / keyint=250 / keyint_min=23 / scenecut=40 / intra_refresh=0 / rc=2pass / mbtree=0 / bitrate=4184 / ratetol=1.0 / qcomp=0.60 / qpmin=0 / qpmax=69 / qpstep=4 / cplxblur=20.0 / qblur=0.5 / ip_ratio=1.40 / pb_ratio=1.30 / aq=1:1.00
      Language : English
   Audio #2
      ID : 2
      Format : AC-3
      Format/Info : Audio Coding 3
      Mode extension : CM (complete main)
      Codec ID : A_AC3
      Duration : 1h 49mn
      Bit rate mode : Constant
      Bit rate : 448 Kbps
      Channel(s) : 6 channels
      Channel positions : Front: L C R, Side: L R, LFE
      Sampling rate : 48.0 KHz
      Bit depth : 16 bits
      Compression mode : Lossy
      Stream size : 351 MiB (7%)
      Title : DD 5.1 @ 448 kbps - Dub, R5
      Language : Ukrainian
   Audio #3
      ID : 3
      Format :
      Format/Info : Digital Theater Systems
      Codec ID : A_DTS
      Duration : 1h 49mn
      Bit rate mode : Constant
      Bit rate : 1 510 Kbps
      Channel(s) : 6 channels
      Channel positions : Front: L C R, Side: L R, LFE
      Sampling rate : 48.0 KHz
      Bit depth : 24 bits
      Compression mode : Lossy
      Stream size : 1.16 GiB (25%)
      Title : 5.1 @ 1536 kbps
      Language : English
   Text #4
      ID : 4
      Format : UTF-8
      Codec ID : S_TEXT/UTF8
      Codec ID/Info : UTF-8 Plain Text
      Title : Forced
      Language : English
Світлини


Особиста оцінка: 10 - без зайвих вагань рекомендую всім!


 Трекер:    Зареєстрований   

Завантажити / скачати фільм українською



відео для новачків



 Зареєстрований:   2012-06-09 09:29
 Розмір:   4.7 GB 
 Оцінка фільму:   9.1/10 (Голосів: 33)
   
Інші релізи
Anonymous 







2012-06-09 10:22  
англійські саби форсовані

Додано через 41 хвилину 8 секунд:

тоді в шапці не треба вказувати

footballer22 
Новенький


З нами з: 07.05.11
Востаннє: 20.11.16
Повідомлень: 6

2012-06-09 10:47  
Фільм чудовий. Рекомендую!
taras1994 
Почесний оцифрувальник літератури


З нами з: 23.03.12
Востаннє: 30.11.16
Повідомлень: 5096

2012-06-09 15:11  
footballer22 написано:
Фільм чудовий. Рекомендую!

що саме тобі сподобалося в фільмі? Я ще не бачив, і не знаю чи варто дивитися.

vic88888888 
Свій


З нами з: 11.11.10
Востаннє: 30.11.16
Повідомлень: 66

2012-06-09 17:56  
Тільки но переглюнув початок, так дійсно за 20 хв. були "ржачні" моменти, хотів порадити панові Тарасу, але переглянувши відео з Холодного Яру, тепер і не знаю... Не знаю чи сподобається легковажна молодіжна (пацаняча) комедія?...
SHEVA1991 
Поважний учасник


З нами з: 29.11.12
Востаннє: 03.12.16
Повідомлень: 200

2013-03-21 10:51  
Супер фільм!! ржав по російському перекладі а тут ще більше бо він кращий)))) Дякую
Ваш часовий пояс: GMT + 2 Години

Нова тема   Відповісти