Завантажити та скачати торренти українською


Перед заходом сонця / Before Sunset (2004) 720p Ukr/Eng | Sub Eng

Нові коментарі

Нова тема   Відповісти
Автор Повідомлення
xfsthe 
Оцифрування книг Гуртом
Оцифрування книг Гуртом


З нами з: 13.02.11
Востаннє: 01.12.16
Повідомлень: 279

2012-06-07 01:27  
Перед заходом сонця / Before Sunset (2004) 720p Ukr/Eng | Sub Eng

Перед заходом сонця / Before Sunset (2004) 720p Ukr/Eng | Sub Eng


Жанр: романтика, драма
Країна: США



Кіностудія / кінокомпанія: Warner Independent Pictures
Режисер: Річард Лінклейтер
Актори: Ітан Гоук, Жюлі Делпі, Вернон Добтчефф та інші.

Сюжет:
"Перед заходом сонця" – це друга частина історії двох героїв, які в юності волею долі випадково стрілися в дорозі й провели кілька незабутніх романтичних годин у передранковому Відні... Минуло цілих дев’ять років, коли їм даровано ще один такий випадок – лише кілька годин (тепер – у присмерковому Парижі), аби щось важливе зрозуміти одне про одного дорослих, аби зрештою вирішити – що далі робити із власним життям...


Тривалість: 01:20:10
Якість: 720p
Відео:
розмір кадру: 1280 х 720
бітрейт: 7 430 кб/с
кодек:
частота кадрів: 23.976 кадр/сек

Аудіо #1:
мова: українська
переклад: двоголосий закадровий
кодек: 2.0
бітрейт: 192 кб/с

Аудіо #2:
мова: англійська
переклад: оригінал
кодек: 5.1
бітрейт: 448 кб/с

Субтитри #1:
мова: англійська
тип: програмні (м'які)
формат: *.srt
MediaInfo

General
Unique ID : 120933201790099948090018542335185902623 (0x5AFAE330910DC72B3470BFC48AB7DC1F)
Complete name : /media/soft/Before Sunset (2004) [ukr,eng] sub[eng] 720p.mkv
Format : Matroska
Format version : Version 2
File size : 4.52 GiB
Duration : 1h 20mn
Overall bit rate : 8 074 Kbps
Movie name : Перед заходом сонця / Before Sunset (2004) 720p
Encoded date : UTC 2012-06-06 22:15:52
Writing application : mkvmerge v5.1.0 ('And so it goes') built on Feb 1 2012 11:31:23
Writing library : libebml v1.2.2 + libmatroska v1.3.0

Video
ID : 1
Format : AVC
Format/Info : Advanced Video Codec
Format profile : [email protected]
Format settings, CABAC : Yes
Format settings, ReFrames : 6 frames
Codec ID : V_MPEG4/ISO/AVC
Duration : 1h 20mn
Bit rate : 7 430 Kbps
Width : 1 280 pixels
Height : 720 pixels
Display aspect ratio : 16:9
Frame rate : 23.976 fps
Color space : YUV
Chroma subsampling : 4:2:0
Bit depth : 8 bits
Scan type : Progressive
Bits/(Pixel*Frame) : 0.336
Stream size : 4.07 GiB (90%)
Title : Перед заходом сонця / Before Sunset (2004) 720p
Writing library : core 58 svn-736M
Encoding settings : cabac=1 / ref=6 / deblock=1:-3:-3 / analyse=0x3:0x113 / me=umh / subme=7 / me-prepass=0 / brdo=1 / mixed_ref=1 / me_range=16 / chroma_me=1 / trellis=1 / 8x8dct=1 / cqm=2 / deadzone=21,11 / chroma_qp_offset=0 / threads=3 / nr=0 / decimate=1 / mbaff=0 / bframes=3 / b_pyramid=1 / b_adapt=1 / b_bias=0 / direct=3 / wpredb=1 / bime=1 / keyint=250 / keyint_min=25 / scenecut=40(pre) / rc=2pass / bitrate=7430 / ratetol=1.0 / rceq='blurCplx^(1-qComp)' / qcomp=1.00 / qpmin=10 / qpmax=51 / qpstep=4 / cplxblur=20.0 / qblur=0.5 / ip_ratio=1.40 / pb_ratio=1.30 / aq=1:0.5:13.0
Language : English
Default : Yes
Forced : Yes

Audio #1
ID : 2
Format : AC-3
Format/Info : Audio Coding 3
Mode extension : CM (complete main)
Format settings, Endianness : Big
Codec ID : A_AC3
Duration : 1h 20mn
Bit rate mode : Constant
Bit rate : 192 Kbps
Channel(s) : 2 channels
Channel positions : Front: L R
Sampling rate : 48.0 KHz
Bit depth : 16 bits
Compression mode : Lossy
Delay relative to video : 16ms
Stream size : 110 MiB (2%)
Title : 2.0 @ 192 kbps
Language : Ukrainian
Default : Yes
Forced : Yes

Audio #2
ID : 3
Format : AC-3
Format/Info : Audio Coding 3
Mode extension : CM (complete main)
Format settings, Endianness : Big
Codec ID : A_AC3
Duration : 1h 20mn
Bit rate mode : Constant
Bit rate : 448 Kbps
Channel(s) : 6 channels
Channel positions : Front: L C R, Side: L R, LFE
Sampling rate : 48.0 KHz
Bit depth : 16 bits
Compression mode : Lossy
Stream size : 257 MiB (6%)
Title : 5.1 @ 448 kbps
Language : English
Default : No
Forced : No

Text
ID : 4
Format : UTF-8
Codec ID : S_TEXT/UTF8
Codec ID/Info : UTF-8 Plain Text
Language : English
Default : No
Forced : No
Світлини:






Джерело: &
Особиста оцінка: 12 - чудовий романтичний фільм. Раджу! PS. Спочатку подивіться першу частину

Дякую панові robotron005 за українську звукову доріжку.


Срібний реліз (на рейтинг впливає 50% завантаженого)
 Трекер:    Зареєстрований   

Завантажити / скачати фільм українською



відео для новачків



 Зареєстрований:   2012-06-07 01:27
 Розмір:   4.52 GB 
 Оцінка фільму:   9.1/10 (Голосів: 14)
   
Інші релізи
oxpim 
Новенький


З нами з: 28.03.10
Востаннє: 03.12.16
Повідомлень: 2

2012-06-07 08:00  
А яку назву має перша частина?
DiGen 
Модератор HD та координатор Команди HD
Модератор HD та координатор Команди HD


З нами з: 12.11.09
Востаннє: 24.06.13
Повідомлень: 1452

2012-06-07 09:11  
oxpim
Наприкінці п. "Особиста оціека" є відповідний лінк

oxpim 
Новенький


З нами з: 28.03.10
Востаннє: 03.12.16
Повідомлень: 2

2012-06-07 09:20  
Дякую!
waldi-hurtom 
VIP


З нами з: 07.10.12
Востаннє: 02.12.16
Повідомлень: 611

2012-12-17 15:46  
Перша частина До сходу сонця / Before Sunrise (1995), шкода, що ця інфа малопомітна - треба було в постері вказати. Спочатку подивились другу.
А фільм і справді чудовий. Діалоги просто нереальні, набагато мудріші та складніші, ніж властиво для цього віку. Але ж усі романтичні фільми схожі казки, за це їх і люблять! Дякую!

BigDrifterMen 
Новенький


З нами з: 13.04.12
Востаннє: 02.12.16
Повідомлень: 4

2016-08-12 14:30  
Станьте, будь ласка, хтось на роздачу. Я завантажу і стану на роздачу. Happy
Ваш часовий пояс: GMT + 2 Години

Нова тема   Відповісти