Завантажити та скачати торренти українською


Блейд. Трилогія / Blade. Trilogy (1998/2002/2004) 1080p

Нові коментарі

Нова тема   Відповісти
Автор Повідомлення
11FrYkT 
Модератор відео


З нами з: 20.02.11
Востаннє: 10.12.16
Повідомлень: 3135

2012-06-06 08:38  
Блейд. Трилогія / Blade. Trilogy (1998/2002/2004) 1080p
Блейд. Трилогія / Blade. Trilogy (1998/2002/2004) 1080p






Блейд / Blade (1998) 1080p





Блейд / Blade (1998) 1080p




«Вампірам не місце на Землі»


Блейд. Трилогія / Blade. Trilogy (1998/2002/2004) 1080p

Жанр: екшн, фентезі, жахи
Країна: США



Кіностудія / кінокомпанія: New Line Cinemas
Режисер: Стівен Норрінгтон / Stephen Norrington
Актори: Веслі Снайпс / Wesley Snipes, Стівен Дорфф / Stephen Dorff, Кріс Крістофферсон / Kris Kristofferson, Н'Буш Райт / N'Bushe Wright, Донал Лог / Donal Logue, Удо Кір / Udo Kier, Арлі Ховер / Arly Jover, Трейсі Лордс / Traci Lords, Кевін Патрік Уоллс / Kevin Patrick Walls, Тім Гіні / Tim Guinee та інші.

Сюжет:
Напівлюдина-напіввампір Блейд має намір знищити винуватця своєї долі - Диякона Фроста. Колись у кров Блейда потрапило зовсім небагато вампірської отрути, з плином часу він став відчувати неминучість свого перетворення. Бажаючи позбавити людей від таємної і могутньої армії вампірів, що заполонила суспільство, він відправляється на вирішальний бій ...


Тривалість: 01:55:17
Якість: 1080p
Відео:
кодек:
розмір кадру: 1920 х 816
бітрейт: 7850 кб/с

Аудіо:
мова: українська
переклад: багатоголосий закадровий
кодек: 5.1
бітрейт: 384 кб/с

Переклад і озвучення виконано:
на замовлення

Особиста оцінка: 10 - без зайвих вагань рекомендую всім!
Подяка пану gig_Panas та пану MAKAPOHHIK за запис звуку, пану Neo777 за синхронізацію, та пану pan_oleg за українізований постер.
MediaInfo
Код:
Blade Trilogy (1998, 2002, 2004) 1080p\Blade (1998) 1080p .mkv
   General
      UniqueID : 216217862027364479920513169551607845075 (0xA2AA0BA5D25D5F6C918243E501E1D0D3)
      Complete name : Blade Trilogy (1998, 2002, 2004) 1080p\Blade (1998) 1080p .mkv
      Format : Matroska
      File size : 6.92 GiB
      Duration : 1h 55mn
      Overall bit rate : 8 587 Kbps
      Movie name : Blade (1998) 1080p
      Encoded date : UTC 2012-06-05 14:34:16
      Writing application : mkvmerge v4.9.1 ('Ich will') зібрано Jul 11 2011 23:53:15
      Writing library : libebml v1.2.1 + libmatroska v1.1.1
   Video #1
      ID : 1
      Format : AVC
      Format/Info : Advanced Video Codec
      Format profile : [email protected]
      Format settings, CABAC : Yes
      Format settings, ReFrames : 8 frames
      Codec ID : V_MPEG4/ISO/AVC
      Duration : 1h 55mn
      Bit rate : 7 850 Kbps
      Width : 1 920 pixels
      Height : 816 pixels
      Display aspect ratio : 2.35:1
      Frame rate : 25.000 fps
      Original frame rate : 23.976 fps
      Color space : YUV
      Chroma subsampling : 4:2:0
      Bit depth : 8 bits
      Scan type : Progressive
      Bits/(Pixel*Frame) : 0.200
      Stream size : 6.47 GiB (94%)
      Title : Blade (1998)  1080p
      Writing library : core 54 svn-645M
      Encoding settings : cabac=1 / ref=5 / deblock=1:-3:-3 / analyse=0x3:0x113 / me=umh / subme=7 / brdo=1 / mixed_ref=1 / me_range=16 / chroma_me=1 / trellis=1 / 8x8dct=1 / cqm=2 / deadzone=21,11 / chroma_qp_offset=0 / threads=3 / nr=0 / decimate=1 / mbaff=0 / bframes=5 / b_pyramid=1 / b_adapt=1 / b_bias=0 / direct=3 / wpredb=1 / bime=1 / keyint=250 / keyint_min=25 / scenecut=40(pre) / rc=2pass / bitrate=7850 / ratetol=1.0 / rceq='blurCplx^(1-qComp)' / qcomp=0.60 / qpmin=10 / qpmax=51 / qpstep=4 / cplxblur=20.0 / qblur=0.5 / ip_ratio=1.40 / pb_ratio=1.30
      Language : English
   Audio #2
      ID : 2
      Format : AC-3
      Format/Info : Audio Coding 3
      Mode extension : CM (complete main)
      Codec ID : A_AC3
      Duration : 1h 55mn
      Bit rate mode : Constant
      Bit rate : 384 Kbps
      Channel(s) : 6 channels
      Channel positions : Front: L C R, Side: L R, LFE
      Sampling rate : 48.0 KHz
      Bit depth : 16 bits
      Compression mode : Lossy
      Stream size : 317 MiB (4%)
      Title : Багатоголосий закадровий (Так треба продакшн на замовлення ictv)
      Language : Ukrainian
Скріншоти

Блейд 2 / Blade 2 (2002) 1080p





Блейд 2 / Blade 2 (2002) 1080p




«Нехай бій почнеться»


Блейд. Трилогія / Blade. Trilogy (1998/2002/2004) 1080p

Жанр: екшн, фентезі, жахи
Країна: США, Великобританія, Канада



Кіностудія / кінокомпанія: New Line Cinemas
Режисер: Гільермо Дель Торо / Guillermo del Toro
Актори: Веслі Снайпс / Wesley Snipes, Кріс Крістофферсон / Kris Kristofferson, Рон Карлнман / Ron Perlman, Леонор Варелла / Leonor Varela, Норман Рідас / Norman Reedus, Томас Кретчман / Thomas Kretschmann, Люк Госс / Luke Goss, Метт Шульц / Matt Schulze та інші.

Сюжет:
Світ вампірів в жаху від появи нової раси супер-кровососів-жнеців! Тільки завдяки цьому легендарний Блейд і його вчитель Віслер вимушені обєднатись із своїми кровними ворогами - Кровяною Зграєю, - Елітним загоном вампірів-воїнів...Нова раса безжалісних вампірів повинна бути знищенна, Починаються нові захоплюючі пригоди з вражаючими спецефектами і рукопашними боями. Неповторний Уэслі Снайпс повертається в продовження культової класики Блейд.


Тривалість: 01:56:49
Якість: 1080p
Відео:
кодек:
розмір кадру: 1920 x 1080
бітрейт: 8227 кб/с

Аудіо:
мова: українська
переклад: багатоголосий закадровий
кодек: 5.1
бітрейт: 384 кб/с

Переклад і озвучення виконано:
на замовлення

Особиста оцінка: 10 - без зайвих вагань рекомендую всім!
Подяка пану dvorsky за запис звуку, пану Neo777 за синхронізацію, та пану hellforces за українізований постер.
MediaInfo
Код:
Blade Trilogy (1998, 2002, 2004) 1080p\Blade II (2002) 1080p\Blade II (2002) 1080p .mkv
   General
      UniqueID : 174688846665596597537253696444268008954 (0x836BD91B66F61E9DACBE082DB143D5FA)
      Complete name : Blade Trilogy (1998, 2002, 2004) 1080p\Blade II (2002) 1080p\Blade II (2002) 1080p .mkv
      Format : Matroska
      File size : 7.03 GiB
      Duration : 1h 56mn
      Overall bit rate : 8 612 Kbps
      Movie name : Blade II (2002) 1080p
      Encoded date : UTC 2012-06-05 14:52:09
      Writing application : mkvmerge v4.9.1 ('Ich will') зібрано Jul 11 2011 23:53:15
      Writing library : libebml v1.2.1 + libmatroska v1.1.1
   Video #1
      ID : 1
      Format : AVC
      Format/Info : Advanced Video Codec
      Format profile : [email protected]
      Format settings, CABAC : Yes
      Format settings, ReFrames : 4 frames
      Codec ID : V_MPEG4/ISO/AVC
      Duration : 1h 56mn
      Bit rate : 8 227 Kbps
      Width : 1 920 pixels
      Height : 1 080 pixels
      Display aspect ratio : 16:9
      Frame rate : 23.976 fps
      Color space : YUV
      Chroma subsampling : 4:2:0
      Bit depth : 8 bits
      Scan type : Progressive
      Bits/(Pixel*Frame) : 0.165
      Stream size : 6.57 GiB (94%)
      Title : Blade II (2002) 1080p
      Writing library : core 68 r1183M f21daff
      Encoding settings : cabac=1 / ref=4 / deblock=1:0:0 / analyse=0x3:0x133 / me=umh / subme=7 / psy_rd=1.0:0.0 / mixed_ref=1 / me_range=16 / chroma_me=1 / trellis=1 / 8x8dct=1 / cqm=0 / deadzone=21,11 / chroma_qp_offset=-2 / threads=6 / nr=0 / decimate=1 / mbaff=0 / bframes=3 / b_pyramid=1 / b_adapt=1 / b_bias=0 / direct=1 / wpredb=1 / keyint=250 / keyint_min=25 / scenecut=40 / rc=2pass / bitrate=8227 / ratetol=1.0 / qcomp=0.60 / qpmin=10 / qpmax=51 / qpstep=4 / cplxblur=20.0 / qblur=0.5 / ip_ratio=1.40 / pb_ratio=1.30 / aq=1:1.00
      Language : English
   Audio #2
      ID : 2
      Format : AC-3
      Format/Info : Audio Coding 3
      Mode extension : CM (complete main)
      Codec ID : A_AC3
      Duration : 1h 56mn
      Bit rate mode : Constant
      Bit rate : 384 Kbps
      Channel(s) : 6 channels
      Channel positions : Front: L C R, Side: L R, LFE
      Sampling rate : 48.0 KHz
      Bit depth : 16 bits
      Compression mode : Lossy
      Stream size : 321 MiB (4%)
      Title : Багатоголосий закадровий (Так треба продакшн на замовлення ictv)
      Language : Ukrainian
Скріншоти

Блейд Трійця / Blade Trinity (2004) 1080p





Блейд Трійця / Blade Trinity (2004) 1080p




«Останнє полювання починається.»


Блейд. Трилогія / Blade. Trilogy (1998/2002/2004) 1080p

Жанр: бойовик, жахи, фантастика
Країна: США



Кіностудія / кінокомпанія: New Line Cinemas
Режисер: Девід Ес Гойєр / David S. Goyer
Актори: Веслі Снайпс / Wesley Snipes, Кріс Крістоферсон / Kris Kristofferson, Доменік Пурсел / Dominic Purcell, Джессіка Біл / Jessica Biel, Райан Рейнолдс / Ryan Reynolds та інші.

Сюжет:
І знову Блейд – єдиний, хто може запобігти страшним змінам і перешкодити перетворенню нашого світу в "Планету вампірів".Нарешті у Блейда найшовся гідний ворог, з яким можна годинку - другу позмагатися за долю людства. Його ім’я - граф Дракула. Так що Уеслі Снайпс знову повертається на екрани в ролі легендарного мисливця на вампірів вже в третій частині «Блейд: Трійця». Цього разу йому доведеться добряче пововтузитися. Адже вампіри вирішують дискредитувати його, виставивши монстром-убивцею перед хлопцями з ФБР. А ще вони викопали у пам’ятнику іракської архітектури нещадного, злого і вічно живого Дракулу… Ну немає в цьому житті Блейду спокою, немає!


Тривалість: 01:55:50
Якість: 1080p
Відео:
кодек:
розмір кадру: 1920 x 816
бітрейт: 8568 кб/с

Аудіо:
мова: українська
переклад: багатоголосий закадровий
кодек: 5.1
бітрейт: 384 кб/с

Переклад і озвучення виконано:
на замовлення

Особиста оцінка: 10 - без зайвих вагань рекомендую всім!
Подяка пану dvorsky за запис звуку, пану Neo777 за синхронізацію, та пану hellforces за українізований постер.
MediaInfo
Код:
Blade Trilogy (1998, 2002, 2004) 1080p\Blade Trinity (2004) 1080p\Blade Trinity (2004) 1080p .mkv
   General
      UniqueID : 246755247746307615619773726107659949043 (0xB9A35501AED8D5CC86E865E11CB053F3)
      Complete name : Blade Trilogy (1998, 2002, 2004) 1080p\Blade Trinity (2004) 1080p\Blade Trinity (2004) 1080p .mkv
      Format : Matroska
      File size : 7.06 GiB
      Duration : 1h 52mn
      Overall bit rate : 8 955 Kbps
      Movie name : Blade Trinity (2004) 1080p
      Encoded date : UTC 2012-06-05 15:08:16
      Writing application : mkvmerge v4.9.1 ('Ich will') зібрано Jul 11 2011 23:53:15
      Writing library : libebml v1.2.1 + libmatroska v1.1.1
   Video #1
      ID : 1
      Format : AVC
      Format/Info : Advanced Video Codec
      Format profile : [email protected]
      Format settings, CABAC : Yes
      Format settings, ReFrames : 5 frames
      Codec ID : V_MPEG4/ISO/AVC
      Duration : 1h 52mn
      Bit rate : 8 568 Kbps
      Width : 1 920 pixels
      Height : 816 pixels
      Display aspect ratio : 2.35:1
      Frame rate : 23.976 fps
      Color space : YUV
      Chroma subsampling : 4:2:0
      Bit depth : 8 bits
      Scan type : Progressive
      Bits/(Pixel*Frame) : 0.228
      Stream size : 6.62 GiB (94%)
      Title : Blade Trinity (2004) 1080p
      Writing library : core 68 r1183M f21daff
      Encoding settings : cabac=1 / ref=5 / deblock=1:0:0 / analyse=0x3:0x133 / me=umh / subme=7 / psy_rd=1.0:0.0 / mixed_ref=1 / me_range=16 / chroma_me=1 / trellis=1 / 8x8dct=1 / cqm=0 / deadzone=21,11 / chroma_qp_offset=-2 / threads=6 / nr=0 / decimate=1 / mbaff=0 / bframes=3 / b_pyramid=1 / b_adapt=1 / b_bias=0 / direct=1 / wpredb=1 / keyint=250 / keyint_min=25 / scenecut=40 / rc=2pass / bitrate=8568 / ratetol=1.0 / qcomp=0.60 / qpmin=10 / qpmax=51 / qpstep=4 / cplxblur=20.0 / qblur=0.5 / ip_ratio=1.40 / pb_ratio=1.30 / aq=1:1.00
      Language : English
   Audio #2
      ID : 2
      Format : AC-3
      Format/Info : Audio Coding 3
      Mode extension : CM (complete main)
      Codec ID : A_AC3
      Duration : 1h 52mn
      Bit rate mode : Constant
      Bit rate : 384 Kbps
      Channel(s) : 6 channels
      Channel positions : Front: L C R, Side: L R, LFE
      Sampling rate : 48.0 KHz
      Bit depth : 16 bits
      Compression mode : Lossy
      Stream size : 310 MiB (4%)
      Title : Багатоголосий закадровий (Так треба продакшн на замовлення ictv)
      Language : Ukrainian
Скріншоти



Срібний реліз (на рейтинг впливає 50% завантаженого)
 Трекер:    Зареєстрований   

Завантажити / скачати фільм українською



відео для новачків



 Зареєстрований:   2012-06-06 08:38
 Розмір:   21 GB 
 Оцінка фільму:   9.5/10 (Голосів: 16)
   
natashelka 
VIP


З нами з: 23.05.10
Востаннє: 10.12.16
Повідомлень: 442

2012-06-06 09:43  
Пам'ятаю цей фільм. Там гарний афроамериканець лупцює гарних вампірів. Оскільки спогади позитивні, раджу до перегляду.
11FrYkT 
Модератор відео


З нами з: 20.02.11
Востаннє: 10.12.16
Повідомлень: 3135

2012-06-06 09:54  
natashelka , фільм дійсно класний, я його переглядав кіька разів
leroykendall 
Модератор HD


З нами з: 03.01.11
Востаннє: 20.11.16
Повідомлень: 749

2012-06-19 21:57  
Виправьте посилання IMDB.

Додано через 1 хвилину 33 секунди:

Дуже дивно. Посилання вірні, а от зображення - ні.

Додано через 2 хвилини 22 секунди:

Шкода, що без оригінальних доріжок і сабів. Так би забрав би.

taras1994 
Почесний оцифрувальник літератури


З нами з: 23.03.12
Востаннє: 30.11.16
Повідомлень: 5096

2012-06-20 13:06  
leroykendall написано:
Шкода, що без оригінальних доріжок і сабів. Так би забрав би.

Шкода, що не 720р і без оригінальних доріжок, я б теж забарав.

Віктор 
Відео Гуртом - субтитрування
Відео Гуртом - субтитрування


З нами з: 09.01.10
Востаннє: 10.12.16
Повідомлень: 8664

2013-02-24 22:24  
Піаніно в усіх ріпах - жах.
Purdun 
Свій


З нами з: 05.09.13
Востаннє: 29.08.16
Повідомлень: 82

2015-07-22 22:32  
Класс, дякую, але третя частина дійсно відповідає рейтингу, та якщо дивитися Extended, то інше діло, та от біда - немає ніде укр доріжки до режисерки :-((
Влад Гук 
Новенький


З нами з: 06.07.13
Востаннє: 10.12.16
Повідомлень: 10

2015-08-26 21:37  
Станьте на роздачу будь-ласка.
Mr Yuran 
Відео Гуртом - команда HD
Відео Гуртом - команда HD


З нами з: 15.11.11
Востаннє: 10.12.16
Повідомлень: 378

2015-08-26 21:48  
Влад Гук у вас малий рейтинг
Рейтинг: 0.07
Раджу почитати:
Навіщо потрібен рейтинг на торрент-трекері? (пояснення для новачків)
Розширені ЧаПи (FAQ)
Бонуси
А ще в цій темі описано, як ви можете допомогти толоці та підняти свій рейтинг:
Контент для придбання

P.S. Вчора ви завантажили 11.86 GB, сьогодні ще 17.48 GB і втекли з роздачі. Поважайте інших.

Ваш часовий пояс: GMT + 2 Години

Нова тема   Відповісти