Завантажити та скачати торренти українською


Лабіринт Фавна / El laberinto del fauno (2006) 720р Ukr/Spa | Sub Ukr/Eng

Нові коментарі

Нова тема   Відповісти
Автор Повідомлення
Omikron 
VIP


З нами з: 03.01.12
Востаннє: 07.12.16
Повідомлень: 298

2012-06-05 00:41  
Лабіринт Фавна / El laberinto del fauno (2006) 720р Ukr/Spa | Sub Ukr/Eng

Альтернативний постер



Жанр: драма, фентезі, містика, трилер, воєнний
Країна: Іспанія, Мексика, США / Spain, Mexico, USA



Кіностудія / кінокомпанія: Tequila Gang, Esperanto Filmoj, Estudios Picasso, OMM, Sententia Entertainment, Telecinco
Режисер та автор сценарію: Гільєрмо Дель Торо
Актори: Іванна Баґверо (Ivana Baquero), Серджі Лопез (Sergi López), Марібель Верду (Maribel Verdú), Доуг Джонс (Doug Jones), Аріадна Ґіл (Ariadna Gil), Алекс Ангуло (Álex Angulo)

Сюжет:
Іспанія, 1944 рік. Група повстанців бореться з фашистами в гірських лісах північної Наварри. Офелія — 10-літня самотня і мрійлива дівчинка — переїжджає зі своєю вагітною матір'ю Кармен до військового табору вітчима капітана Відаля. Відаль — пихатий та жорстокий офіцер армії Франко, який має очистити район від повстанців будь-якою ціною. Офелія, захоплена магічними казками, знаходить близько дому старовинний закинутий лабіринт.

Фея проводить її до центру лабіринту, де вона зустрічає Фавна, господаря підземелля. Фавн стверджує, що знає її істинну долю і її таємне призначення. Виявляється Офелія — зникла принцеса магічного королівства, котру багато віків розшукує її батько. Фавн пропонує їй можливість вернутися в магічне королівство. Але для початку вона повинна пройти три випробування до настання повного місяця. Ніхто не повинен дізнатися про це.

Час спливає — як для Офелії, так і для загону повстанців. Всім доведеться протистояти труднощам і жорстокості на шляху до свободи.


Тривалість: 01:58:51

Якість:

Відео:
кодек:
розмір кадру: 1280х720
бітрейт: 8765

Аудіо # 1:
мова: українська
переклад: багатоголосий закадровий | студія Омікрон
кодек: 5.1
бітрейт: 1510 кб/с

Аудіо # 2:
мова: іспанська
переклад: оригінал
кодек: 5.1
бітрейт: 1510 кб/с

Аудіо # 3:
мова: англійська
переклад: коментарі
кодек: 2.0
бітрейт: 224 кб/с

Субтитри#1:
мова: українська
тип: програмні (м'які)
формат: *.srt

Субтитри#2:
мова: англійська
тип: програмні (м'які)
формат: *.srt

Скріншоти



МедіаІнфо
General
Unique ID : 170775436275243918586041807629097196243 (0x807A2713FE5ECEB699299872B8E55AD3)
Complete name : Z:\Films\El laberinto del fauno (2006) [ukr.,esp] 720p [Hurtom].mkv
Format : Matroska
Format version : Version 2
File size : 9.97 GiB
Duration : 1h 58mn
Overall bit rate : 12.0 Mbps
Encoded date : UTC 2012-06-04 21:44:09
Writing application : mkvmerge v2.9.0 ('Moanin'') built on May 22 2009 17:46:31
Writing library : libebml v0.7.7 + libmatroska v0.8.1

Video
ID : 1
Format : AVC
Format/Info : Advanced Video Codec
Format profile : [email protected]
Format settings, CABAC : Yes
Format settings, ReFrames : 7 frames
Codec ID : V_MPEG4/ISO/AVC
Duration : 1h 58mn
Bit rate : 8 765 Kbps
Width : 1 280 pixels
Height : 720 pixels
Display aspect ratio : 16:9
Frame rate : 23.976 fps
Color space : YUV
Chroma subsampling : 4:2:0
Bit depth : 8 bits
Scan type : Progressive
Bits/(Pixel*Frame) : 0.397
Stream size : 7.08 GiB (71%)
Writing library : core 67 r1145M d2e1e1c
Encoding settings : cabac=1 / ref=7 / deblock=1:-3:-3 / analyse=0x3:0x113 / me=umh / subme=9 / psy_rd=0.7:0.6 / mixed_ref=1 / me_range=24 / chroma_me=1 / trellis=2 / 8x8dct=1 / cqm=0 / deadzone=21,11 / chroma_qp_offset=-8 / threads=6 / nr=0 / decimate=0 / mbaff=0 / bframes=6 / b_pyramid=1 / b_adapt=2 / b_bias=0 / direct=3 / wpredb=1 / keyint=250 / keyint_min=25 / scenecut=40 / rc=2pass / bitrate=8765 / ratetol=1.0 / qcomp=0.60 / qpmin=10 / qpmax=51 / qpstep=4 / cplxblur=20.0 / qblur=0.5 / vbv_maxrate=40000 / vbv_bufsize=30000 / ip_ratio=1.40 / pb_ratio=1.30 / aq=1:0.80 / zones=161170,170974,q=27,no-chroma-me
Language : English
Default : Yes
Forced : No

Audio #1
ID : 2
Format :
Format/Info : Digital Theater Systems
Codec ID : A_DTS
Duration : 1h 58mn
Bit rate mode : Constant
Bit rate : 1 510 Kbps
Channel(s) : 6 channels
Channel positions : Front: L C R, Side: L R, LFE
Sampling rate : 48.0 KHz
Bit depth : 24 bits
Compression mode : Lossy
Delay relative to video : 950ms
Stream size : 1.25 GiB (13%)
Title : MVO Omikron Studio for Hurtom
Language : Ukrainian
Default : Yes
Forced : No

Audio #2
ID : 3
Format :
Format/Info : Digital Theater Systems
Codec ID : A_DTS
Duration : 1h 58mn
Bit rate mode : Constant
Bit rate : 1 510 Kbps
Channel(s) : 6 channels
Channel positions : Front: L C R, Side: L R, LFE
Sampling rate : 48.0 KHz
Bit depth : 16 bits
Compression mode : Lossy
Delay relative to video : 950ms
Stream size : 1.25 GiB (13%)
Language : Spanish
Default : No
Forced : No

Audio #3
ID : 4
Format : AC-3
Format/Info : Audio Coding 3
Mode extension : CM (complete main)
Codec ID : A_AC3
Duration : 1h 58mn
Bit rate mode : Constant
Bit rate : 224 Kbps
Channel(s) : 2 channels
Channel positions : Front: L R
Sampling rate : 48.0 KHz
Bit depth : 16 bits
Compression mode : Lossy
Stream size : 191 MiB (2%)
Title : Director's Commentary
Language : English
Default : No
Forced : No

Text #1
ID : 5
Format : UTF-8
Codec ID : S_TEXT/UTF8
Codec ID/Info : UTF-8 Plain Text
Title : Ukrainian
Language : Ukrainian
Default : Yes
Forced : No

Text #2
ID : 6
Format : UTF-8
Codec ID : S_TEXT/UTF8
Codec ID/Info : UTF-8 Plain Text
Title : English
Language : English
Default : No
Forced : No

Джерело:
Автори постерів: SaintManiac і Gelios


Авторський реліз (завантажувати можна без реєстрації)
 Трекер:    Зареєстрований   

Завантажити / скачати фільм українською



відео для новачків



 Зареєстрований:   2012-06-05 09:10
 Розмір:   9.97 GB 
 Оцінка фільму:   9.4/10 (Голосів: 30)
   
Інші релізи
tempus2010 
Частий відвідувач


З нами з: 18.09.09
Востаннє: 03.12.16
Повідомлень: 34

2012-06-05 12:51  
зробіть хтось 720-mini
vic88888888 
Свій


З нами з: 11.11.10
Востаннє: 30.11.16
Повідомлень: 66

2012-06-07 08:51  
Вітаю, шановне товариство! Крик душі: Із нетерпінням чекав "рідний" дубляж та зрештою, дякувати Богові, ентузіастам гуртомівцям та студії Омікрон, дочекався. Усім щиросердечне спасибі! Але є одне "але": оптимального (так щоб 720р. двд-шного 4,7-го розміру) немає. Тому поважні "Отці-гуртомівці" можливо варто зробити якісний та оптимальний ріп, а раптом це ще комусь потрібно?.. Всеж таки фільм достойний будь-якої колекції.

Боже бережи Україну!

inout 
Частий відвідувач


З нами з: 02.06.09
Востаннє: 06.12.16
Повідомлень: 31

2012-06-07 13:53  
vic88888888 написано:
дубляж

це не дубляж, це озвучення! Коли ви вже запам'ятаєте..

Sensetivity 
VIP


З нами з: 03.05.11
Востаннє: 03.01.13
Повідомлень: 2019

2012-06-18 09:32  
А де рейтинги?
Limbo 
Новенький


З нами з: 11.07.12
Востаннє: 31.07.15
Повідомлень: 8

2012-08-29 23:19  
Гарний та містичний фільм.Сподобався Wink (2)
waldi-hurtom 
VIP


З нами з: 07.10.12
Востаннє: 07.12.16
Повідомлень: 611

2013-07-03 21:31  
Чогось тут не вказані рейтинги - 8.3 для 1080p. Як на мене, зависока оцінка, 7/10 достатньо. Суміш різних жанрів, не дуже гармонійна. Ані зберігати, ані переглядати не буду гарантовано. Але дякую за лікнеп.
Ваш часовий пояс: GMT + 2 Години

Нова тема   Відповісти