Завантажити та скачати торренти українською


Проект Х: Дорвались / Project X (2012) 720p Ukr/Eng | Sub Eng | Line

Нові коментарі

Нова тема   Відповісти
Автор Повідомлення
Anonymous 







2012-06-04 18:18  
Проект Х: Дорвались / Project X (2012) 720p Ukr/Eng | Sub Eng | Line

Проект Х: Дорвались / Project X (2012) 720p Ukr/Eng | Sub Eng | Line
Альтернативний постер:
Проект Х: Дорвались / Project X (2012) 720p Ukr/Eng | Sub Eng | Line


Жанр: комедія
Країна: США



Кіностудія / кінокомпанія: Green Hat Films, Silver Pictures
Режисер: Ніна Нурізаде
Актори: Томас Манн, Олівер Купер, Джонатан Деніел Браун, Дакс Флейм, Кірбі Блісс Блантон

Сюжет:
У центрі історії троє однокласників, які вирішили влаштувати круту вечірку і прославитися на всю округу. Звісно, утримати події під контролем у них не вийшло і тусовка розростається настільки, що зупинити її вже нікому не під силу... Буде круто!


Тривалість: 01:27:53
Якість: 720p від [FSB]
Відео:
кодек:
розмір кадру: 1280x720
бітрейт: 6730 кб/с

Аудіо 1:
мова: українська |Line|
переклад: професійний дубльований
кодек: 5.1
бітрейт: 448 кб/с

Аудіо 2:
мова: англійська
переклад: оригінал
кодек: 5.1
бітрейт: 1510 кб/с

Дубльовано:

Субтитри:
мова: англійська
тип: програмні (м'які)
формат: *.pjs

Подяка написано:
Skiff за наданий звук


MediaInfo

Format : Matroska
Format version : Version 1
File size : 5.34 GiB
Duration : 1h 27mn
Overall bit rate : 8 701 Kbps
Movie name : Project X (2012) 720p Ukr/Eng | Sub Eng
Encoded date : UTC 2012-06-04 16:06:18
Writing application : mkvmerge v2.4.2 ('Oh My God') built on Jan 18 2009 17:30:28
Writing library : libebml v0.7.7 + libmatroska v0.8.1
Video #1
ID : 1
Format : AVC
Format/Info : Advanced Video Codec
Format profile : [email protected]
Format settings, CABAC : Yes
Format settings, ReFrames : 9 frames
Codec ID : V_MPEG4/ISO/AVC
Duration : 1h 27mn
Bit rate : 6 730 Kbps
Width : 1 280 pixels
Height : 720 pixels
Display aspect ratio : 16:9
Frame rate : 23.976 fps
Color space : YUV
Chroma subsampling : 4:2:0
Bit depth : 8 bits
Scan type : Progressive
Bits/(Pixel*Frame) : 0.305
Stream size : 4.03 GiB (76%)
Title : Project X (2012) 720p Ukr/Eng | Sub Eng
Writing library : core 124 r2197 69a0443
Encoding settings : cabac=1 / ref=9 / deblock=1:-3:-3 / analyse=0x3:0x113 / me=umh / subme=11 / psy=1 / psy_rd=1.00:0.00 / mixed_ref=1 / me_range=32 / chroma_me=1 / trellis=2 / 8x8dct=1 / cqm=0 / deadzone=21,11 / fast_pskip=0 / chroma_qp_offset=-2 / threads=6 / sliced_threads=0 / nr=0 / decimate=1 / interlaced=0 / bluray_compat=0 / constrained_intra=0 / bframes=8 / b_pyramid=2 / b_adapt=2 / b_bias=0 / direct=3 / weightb=1 / open_gop=0 / weightp=2 / keyint=250 / keyint_min=24 / scenecut=40 / intra_refresh=0 / rc_lookahead=40 / rc=2pass / mbtree=0 / bitrate=6730 / ratetol=1.0 / qcomp=0.60 / qpmin=0 / qpmax=69 / qpstep=4 / cplxblur=20.0 / qblur=0.5 / vbv_maxrate=50000 / vbv_bufsize=50000 / nal_hrd=none / ip_ratio=1.40 / pb_ratio=1.30 / aq=1:1.00
Language : English
Audio #2
ID : 2
Format : AC-3
Format/Info : Audio Coding 3
Mode extension : CM (complete main)
Codec ID : A_AC3
Duration : 1h 27mn
Bit rate mode : Constant
Bit rate : 448 Kbps
Channel(s) : 6 channels
Channel positions : Front: L C R, Side: L R, LFE
Sampling rate : 48.0 KHz
Bit depth : 16 bits
Compression mode : Lossy
Stream size : 282 MiB (5%)
Language : Ukrainian
Audio #3
ID : 3
Format :
Format/Info : Digital Theater Systems
Codec ID : A_DTS
Duration : 1h 27mn
Bit rate mode : Constant
Bit rate : 1 510 Kbps
Channel(s) : 6 channels
Channel positions : Front: L C R, Side: L R, LFE
Sampling rate : 48.0 KHz
Bit depth : 24 bits
Compression mode : Lossy
Delay relative to video : 11ms
Stream size : 949 MiB (17%)
Language : English
Text #4
ID : 4
Format : PGS
Codec ID : S_HDMV/PGS
Codec ID/Info : The same subtitle format used on BDs/HD-DVDs
Language : English
Скріншоти





Джерело: &
Особиста оцінка: не дивився


 Трекер:    Зареєстрований   

Завантажити / скачати фільм українською



відео для новачків



 Зареєстрований:   2012-06-04 18:18
 Розмір:   5.34 GB 
 Оцінка фільму:   8.5/10 (Голосів: 33)
   
Інші релізи
   Проект X / Project X (2012) 1080p 2xUkr/Eng | Sub Ukr/Eng tarasyk98  1 / 0   9.42 GB   2014-12-18 22:44 
   Проект Х: Дорвались / Project X (2012) 2xUkr patriot2305  4 / 0   1.46 GB   2013-11-30 09:34 
   Проект Х: Дорвались / Project X (2012) AVC Ukr/Eng AngryBirdsUA  2 / 0   2.06 GB   2012-06-25 17:40 
praysu 
Забанено
Забанено


З нами з: 22.05.08
Востаннє: 13.11.13
Повідомлень: 119

2012-06-04 20:28  
Такий якись не зрозумілий фільм ну так дивитись можна.
jchimei 
Новенький


З нами з: 01.05.10
Востаннє: 01.12.16
Повідомлень: 8

2012-06-04 23:22  
бачив тут в кіно, мені сподобався, до того ж класна музика під час фільму
11FrYkT 
Модератор відео


З нами з: 20.02.11
Востаннє: 09.12.16
Повідомлень: 3132

2012-06-05 18:44  
весела комедія, дякую
sparr0w 
Свій


З нами з: 21.11.11
Востаннє: 26.10.16
Повідомлень: 55

2012-06-07 00:30  
крутий фільм, теж так хочу) 8/10
дякую

leon61 
Частий відвідувач


З нами з: 09.09.08
Востаннє: 21.10.16
Повідомлень: 42

2012-06-09 00:05  
Догадувався що фільм буде знятий в такому стилі (ніби на домашню відеокамеру, і буде ходити всюди з нею), але фільм сподобався. І як вже зазначали, музика теж непогана.
Окрім, на початку 2 Live Crew – We Want Some Pu**y Wide grin

trofum911 
Свій


З нами з: 31.01.12
Востаннє: 01.12.16
Повідомлень: 148

2012-06-26 15:53  
Скажу прямо, фільм бомба, але не хотів би бути на його місті
Bohdan237 
Відео Гуртом - фільмокрай
Відео Гуртом - фільмокрай


З нами з: 12.02.12
Востаннє: 08.12.16
Повідомлень: 383

2012-08-09 22:46  
Фільм просто бомба раджу усім переглянути і без винятків!Це дуже дуже класне кіно.Але все ж таки шкода Томаса. Проте цю подію вони запамятають на все своє життя. Wide grin
bot 
робот


З нами з: 30.09.07
Востаннє: 26.05.05
Повідомлень: 16031

2012-09-21 13:17  
Тему перенесено з Фільми в HD до форуму Неоформлене відео


urij546724

zvbm 
Свій


З нами з: 20.05.12
Востаннє: 04.02.16
Повідомлень: 76

2012-09-30 12:17  
А що, якщо зняти фільм з малолетками, де купа голих, доступних, дівчат і яких в два рази більше від хлопців..потім щоб це все плавно перейшло в прилюдію кінця світу і на останок, ЩОБ ВСЕ ЦЕ ЗАКІНЧИЛОСЯ ХЕПІ ЕНДОМ!!!!!!!! Ось про що думав режисер фільму, коли писав сценарій))

І взагалі, чому в нас не так....чому ми живем в цих довбаних квартірах, з предками, про машину й розмови нема....Який там мінівен, у нас ланос це мерс!!! Америка, я кохаю тебе!

DеLight 
Відео Гуртом - фільмокрай
Відео Гуртом - фільмокрай


З нами з: 24.08.11
Востаннє: 17.11.16
Повідомлень: 664

2012-10-05 23:54  
Кінцівка звичайно не дуже хепі ендова - не позаздриш хлопцю, але таку вечірку ще довго будуть пам'ятати і те, у що вона переросла...
Ваш часовий пояс: GMT + 2 Години

Нова тема   Відповісти