Завантажити та скачати торренти українською


VA (Ватра, Водограй, Кобза, Смерічка, Тріо Маренич) - Українські ВІА (5CD) (2007-2008) [FLAC] | Pop Folk

Нові коментарі

Нова тема   Відповісти
Автор Повідомлення
ssTAss 
Модератор музики


З нами з: 05.07.08
Востаннє: 10.12.16
Повідомлень: 10950

2012-06-04 15:34  
VA (Ватра, Водограй, Кобза, Смерічка, Тріо Маренич) - Українські ВІА (5CD) (2007-2008) [FLAC] | Pop Folk



Стиль: Folk, Pop
Країна: Україна
Видавець: Єнісей Груп
Виконавці: Ватра, Водограй, Кобза, Смерічка, Тріо Маренич
Альбоми:
    2007 ВІА Смерічка
    VA (Ватра, Водограй, Кобза, Смерічка, Тріо Маренич) - Українські ВІА (5CD) (2007-2008) [FLAC] | Pop Folk
    Пісні:
      01 - Червона рута (В.Івасюк - муз. і сл.)
      02 - Незрівнянний світ краси (Л.Дутківський - А.Фартушняк) Н.Яремчук
      03 - Ой чия ж то крайня хатка (Г.Скупинський - сл. нар.) Н.Яремчук, В.Зінкевич
      04 - Скажи, скажи (В.Громцев - В.Бабух) В.Зінкевич
      05 - Єдина (Л.Дутківський - В.Кудрявцева) Н.Яремчук
      06 - Горянка (Л.Дутківський - М.Леонтюк та С.Борисенко) Н.Яремчук, В.Зінкевич
      07 - Водограй (В.Івасюк) Н.Пащенко, Н.Яремчук
      08 - Осінь прийшла (Г.Скупинський - В.Касієв) В.Зінкевич
      09 - Шовкова косиця (І.Голяк - В.Кудрявцев) А.Зборлюкова
      10 - Ми йдемо далі (Л.Дутківський - О.Жуков) Н.Пащенко, Н.Яремчук
      11 - Я - твоє крило (В.Івасюк – Р.Кудлик) Н.Пащенко, Н.Яремчук
      12 - Порізала-м пальчик (українська народна пісня)

    Тривалість: 00:38:12
    Мова: українська
    Бітрейт: 768 кбіт/с
    log
    Exact Audio Copy V1.0 beta 3 from 29. August 2011

    EAC extraction logfile from 8. February 2012, 19:58

    ВІА Смерічка / Українські ВІА (BEST)

    Used drive : HL-DT-STDVDRAM GH20NS10 Adapter: 3 ID: 0

    Read mode : Secure
    Utilize accurate stream : Yes
    Defeat audio cache : Yes
    Make use of C2 pointers : No

    Read offset correction : 667
    Overread into Lead-In and Lead-Out : No
    Fill up missing offset samples with silence : Yes
    Delete leading and trailing silent blocks : No
    Null samples used in CRC calculations : Yes
    Used interface : Native Win32 interface for Win NT & 2000

    Used output format : User Defined Encoder
    Selected bitrate : 896 kBit/s
    Quality : High
    Add ID3 tag : No
    Command line compressor : C:\Program Files (x86)\Exact Audio Copy\wavpack.exe
    Additional command line options : -hm %source% %dest%

    TOC of the extracted CD

    Track | Start | Length | Start sector | End sector
    ---------------------------------------------------------
    1 | 0:00.00 | 3:04.63 | 0 | 13862
    2 | 3:04.63 | 2:24.42 | 13863 | 24704
    3 | 5:29.30 | 3:42.72 | 24705 | 41426
    4 | 9:12.27 | 2:47.45 | 41427 | 53996
    5 | 11:59.72 | 2:37.00 | 53997 | 65771
    6 | 14:36.72 | 3:45.60 | 65772 | 82706
    7 | 18:22.57 | 3:23.49 | 82707 | 97980
    8 | 21:46.31 | 3:31.68 | 97981 | 113873
    9 | 25:18.24 | 3:20.51 | 113874 | 128924
    10 | 28:39.00 | 3:29.43 | 128925 | 144642
    11 | 32:08.43 | 3:34.58 | 144643 | 160750
    12 | 35:43.26 | 2:28.69 | 160751 | 171919

    Range status and errors

    Selected range

    Filename C:\Users\Андрей\Music\ВІА Смерічка - Українські ВІА (BEST)\ВІА Смерічка - Українські ВІА (BEST).wav

    Peak level 77.7 %
    Extraction speed 5.7 X
    Range quality 100.0 %
    Test CRC 15396521
    Copy CRC 15396521
    Copy OK

    No errors occurred

    AccurateRip summary

    Track 1 not present in database
    Track 2 not present in database
    Track 3 not present in database
    Track 4 not present in database
    Track 5 not present in database
    Track 6 not present in database
    Track 7 not present in database
    Track 8 not present in database
    Track 9 not present in database
    Track 10 not present in database
    Track 11 not present in database
    Track 12 not present in database

    None of the tracks are present in the AccurateRip database

    End of status report

    ==== Log checksum 21D6BE3E538270E3FE94B1F94BCAAA0A1793ADF9339BCE3FD2666FE12E3899F9 ====
    fooCDtect
    fooCDtect - foobar2000 + auCDtect, baralgin.

    auCDtect: CD records authenticity detector, version 0.8.2
    Copyright (c) 2004 Oleg Berngardt. All rights reserved.
    Copyright (c) 2004 Alexander Djourik. All rights reserved.

    mode: 0

    ===========================================
    Track: 01 - Червона рута (В.Івасюк - муз. і сл.)
    Quality: CDDA 100%
    ===========================================
    Track: 02 - Незрівнянний світ краси (Л.Дутківський - А.Фартушняк) Н.Яремчук
    Quality: CDDA 99%
    ===========================================
    Track: 03 - Ой чия ж то крайня хатка (Г.Скупинський - сл. нар.) Н.Яремчук, В.Зінкевич
    Quality: CDDA 100%
    ===========================================
    Track: 04 - Скажи, скажи (В.Громцев - В.Бабух) В.Зінкевич
    Quality: CDDA 100%
    ===========================================
    Track: 05 - Єдина (Л.Дутківський - В.Кудрявцева) Н.Яремчук
    Quality: CDDA 100%
    ===========================================
    Track: 06 - Горянка (Л.Дутківський - М.Леонтюк та С.Борисенко) Н.Яремчук, В.Зінкевич
    Quality: CDDA 99%
    ===========================================
    Track: 07 - Водограй (В.Івасюк) Н.Пащенко, Н.Яремчук
    Quality: CDDA 100%
    ===========================================
    Track: 08 - Осінь прийшла (Г.Скупинський - В.Касієв) В.Зінкевич
    Quality: CDDA 100%
    ===========================================
    Track: 09 - Шовкова косиця (І.Голяк - В.Кудрявцев) А.Зборлюкова
    Quality: CDDA 100%
    ===========================================
    Track: 10 - Ми йдемо далі (Л.Дутківський - О.Жуков) Н.Пащенко, Н.Яремчук
    Quality: CDDA 100%
    ===========================================
    Track: 11 - Я - твоє крило (В.Івасюк – Р.Кудлик) Н.Пащенко, Н.Яремчук
    Quality: CDDA 100%
    ===========================================
    Track: 12 - Порізала-м пальчик (українська народна пісня)
    Quality: CDDA 100%
    ===========================================
    2007 Тріо Маренич

    Пісні:
      01 - Ой, у гаю при Дунаю (у.н.п., обробка А. Маренич)
      02 - Сиджу я край вiконечка (у.н.п., обробка С. Маренич)
      03 - Посилала мене мати (у.н.п., обробка А. Маренич)
      04 - Вже сонце низенько (у.н.п., обробка В. Маренича)
      05 - Несе Галя воду (у.н.п., обробка А. Маренич)
      06 - Бодай ся когут знудив (у.н.п., обробка В. Маренича)
      07 - Тиша навкруги (А. Богачук)
      08 - Чом ти не прийшов (у.н.п., обробка В. Маренича)
      09 - Ой, пiд вишнею (у.н.п., обробка А. Маренич)
      10 - Мiсяць i зiроньки (у.н.п., обробка А. Маренич)
      11 - Люби (В. Кушнирук - А. Левко)
      12 - Маки червонi (А. Злотник - В. Герасимов)

    Тривалість: 00:41:32
    Мова: українська
    Бітрейт: 648 кбіт/с
    log
    Exact Audio Copy V1.0 beta 3 from 29. August 2011

    EAC extraction logfile from 23. October 2011, 13:22

    Тріо Маренич / Тріо Маренич. Українскi ВIА

    Used drive : PIONEER DVD-RW DVR-212 Adapter: 1 ID: 0

    Read mode : Secure
    Utilize accurate stream : Yes
    Defeat audio cache : Yes
    Make use of C2 pointers : No

    Read offset correction : 48
    Overread into Lead-In and Lead-Out : No
    Fill up missing offset samples with silence : Yes
    Delete leading and trailing silent blocks : No
    Null samples used in CRC calculations : Yes
    Used interface : Native Win32 interface for Win NT & 2000

    Used output format : Internal WAV Routines
    Sample format : 44.100 Hz; 16 Bit; Stereo

    TOC of the extracted CD

    Track | Start | Length | Start sector | End sector
    ---------------------------------------------------------
    1 | 0:00.00 | 4:03.59 | 0 | 18283
    2 | 4:03.59 | 2:44.22 | 18284 | 30605
    3 | 6:48.06 | 2:53.39 | 30606 | 43619
    4 | 9:41.45 | 4:53.23 | 43620 | 65617
    5 | 14:34.68 | 3:49.63 | 65618 | 82855
    6 | 18:24.56 | 2:22.02 | 82856 | 93507
    7 | 20:46.58 | 3:17.66 | 93508 | 108348
    8 | 24:04.49 | 3:50.63 | 108349 | 125661
    9 | 27:55.37 | 2:09.17 | 125662 | 135353
    10 | 30:04.54 | 2:17.61 | 135354 | 145689
    11 | 32:22.40 | 4:47.32 | 145690 | 167246
    12 | 37:09.72 | 4:22.32 | 167247 | 186928

    Range status and errors

    Selected range

    Filename J:\MP3\Тріо Маренич (FLAC)\Тріо Маренич. Українскi ВIА (2007)\Тріо Маренич - Тріо Маренич. Українскi ВIА.wav

    Peak level 60.4 %
    Extraction speed 6.4 X
    Range quality 100.0 %
    Test CRC 3396911C
    Copy CRC 3396911C
    Copy OK

    No errors occurred

    AccurateRip summary

    Track 1 not present in database
    Track 2 not present in database
    Track 3 not present in database
    Track 4 not present in database
    Track 5 not present in database
    Track 6 not present in database
    Track 7 not present in database
    Track 8 not present in database
    Track 9 not present in database
    Track 10 not present in database
    Track 11 not present in database
    Track 12 not present in database

    None of the tracks are present in the AccurateRip database

    End of status report

    ---- CUETools DB Plugin V2.1.3

    [CTDB TOCID: dG9Aa6TiI5HS6Gl1Ns9n6SvE5wg-] disk not present in database, Submit result: database access error: Время ожидания операции истекло

    ==== Log checksum A28B87E6F38B2D36D24CB1F912069D9FCF2CA570FE024F8B5ADC3CB7D622B19A ====
    fooCDtect
    fooCDtect - foobar2000 + auCDtect, baralgin.

    auCDtect: CD records authenticity detector, version 0.8.2
    Copyright (c) 2004 Oleg Berngardt. All rights reserved.
    Copyright (c) 2004 Alexander Djourik. All rights reserved.

    mode: 0

    ===========================================
    Track: 01 - Ой, у гаю при Дунаю
    Quality: CDDA 100%
    ===========================================
    Track: 02 - Сиджу я край вiконечка
    Quality: CDDA 100%
    ===========================================
    Track: 03 - Посилала мене мати
    Quality: CDDA 100%
    ===========================================
    Track: 04 - Вже сонце низенько
    Quality: CDDA 100%
    ===========================================
    Track: 05 - Несе Галя воду
    Quality: CDDA 99%
    ===========================================
    Track: 06 - Бодай ся когут знудив
    Quality: CDDA 100%
    ===========================================
    Track: 07 - Тиша навкруги
    Quality: CDDA 100%
    ===========================================
    Track: 08 - Чом ти не прийшов
    Quality: CDDA 99%
    ===========================================
    Track: 09 - Ой, пiд вишнею
    Quality: CDDA 100%
    ===========================================
    Track: 10 - Мiсяць i зiроньки
    Quality: CDDA 100%
    ===========================================
    Track: 11 - Люби
    Quality: CDDA 100%
    ===========================================
    Track: 12 - Маки червонi
    Quality: CDDA 100%
    ===========================================
    2008 ВІА Ватра
    VA (Ватра, Водограй, Кобза, Смерічка, Тріо Маренич) - Українські ВІА (5CD) (2007-2008) [FLAC] | Pop Folk
    Пісні:
      01 - Вам даруємо (Р.Хабаль-Р.Бревко)
      02 - Пiсня буде помiж нас (В.Iвасюк)
      03 - Гей, ви, хлопці молодії (у.н.п.,обр.Б.Кудли)
      04 - Бодай ся когут знудив (у.н.п.,обр.Б.Кудли)
      05 - Верховинська колискова (Б.Янiвський-Б.Стельмах)
      06 - Як я спала на сені (у.н.п.,обр.Б.Кудли)
      07 - Чорні очка, як терен (у.н.п.,обр.Б.Кудли)
      08 - Відлуння в горах (В.Iльїн-В.Канаш)
      09 - Балада про дві скрипки (В.Iвасюк-В.Марсюк)
      10 - Івана Купала (В.Громцев-Л.Бучко)
      11 - Залишені квіти (Жовте листя) (В.Громцев-В.Iвасюк)
      12 - Ой, чий то кінь стоїть (у.н.п.,обр.Б.Кудли)

    Тривалість: 00:34:36
    Мова: українська
    Бітрейт: 718 кбіт/с
    log
    Exact Audio Copy V1.0 beta 3 from 29. August 2011

    EAC extraction logfile from 5. February 2012, 19:14

    ВИА Ватра / The Best Of (Українські ВІА )

    Used drive : HL-DT-STDVDRAM GH20NS10 Adapter: 3 ID: 0

    Read mode : Secure
    Utilize accurate stream : Yes
    Defeat audio cache : Yes
    Make use of C2 pointers : No

    Read offset correction : 667
    Overread into Lead-In and Lead-Out : No
    Fill up missing offset samples with silence : Yes
    Delete leading and trailing silent blocks : No
    Null samples used in CRC calculations : Yes
    Used interface : Native Win32 interface for Win NT & 2000

    Used output format : User Defined Encoder
    Selected bitrate : 896 kBit/s
    Quality : High
    Add ID3 tag : No
    Command line compressor : C:\Program Files (x86)\Exact Audio Copy\wavpack.exe
    Additional command line options : -hm %source% %dest%

    TOC of the extracted CD

    Track | Start | Length | Start sector | End sector
    ---------------------------------------------------------
    1 | 0:00.00 | 2:10.19 | 0 | 9768
    2 | 2:10.19 | 3:35.60 | 9769 | 25953
    3 | 5:46.04 | 2:19.22 | 25954 | 36400
    4 | 8:05.26 | 2:24.31 | 36401 | 47231
    5 | 10:29.57 | 2:44.69 | 47232 | 59600
    6 | 13:14.51 | 2:35.43 | 59601 | 71268
    7 | 15:50.19 | 1:56.15 | 71269 | 79983
    8 | 17:46.34 | 3:34.36 | 79984 | 96069
    9 | 21:20.70 | 5:15.05 | 96070 | 119699
    10 | 26:36.00 | 2:18.19 | 119700 | 130068
    11 | 28:54.19 | 3:12.44 | 130069 | 144512
    12 | 32:06.63 | 2:28.65 | 144513 | 155677

    Range status and errors

    Selected range

    Filename C:\Users\Андрей\Music\ВИА Ватра - The Best Of ( Українські ВІА )\ВИА Ватра - The Best Of ( Українські ВІА ).wav

    Peak level 72.7 %
    Extraction speed 1.1 X
    Range quality 99.9 %
    Test CRC 39EEC941
    Copy CRC 39EEC941
    Copy OK

    No errors occurred

    AccurateRip summary

    Track 1 not present in database
    Track 2 not present in database
    Track 3 not present in database
    Track 4 not present in database
    Track 5 not present in database
    Track 6 not present in database
    Track 7 not present in database
    Track 8 not present in database
    Track 9 not present in database
    Track 10 not present in database
    Track 11 not present in database
    Track 12 not present in database

    None of the tracks are present in the AccurateRip database

    End of status report

    ==== Log checksum 4920286289DB0D5AC0AC5D9B2388311372A813C314EA202DFA00652654649A52 ====
    fooCDtect
    fooCDtect - foobar2000 + auCDtect, baralgin.

    auCDtect: CD records authenticity detector, version 0.8.2
    Copyright (c) 2004 Oleg Berngardt. All rights reserved.
    Copyright (c) 2004 Alexander Djourik. All rights reserved.

    mode: 0

    ===========================================
    Track: 01 - Вам даруємо (Р.Хабаль-Р.Бревко)
    Quality: MPEG 95%
    ===========================================
    Track: 02 - Пiсня буде помiж нас (В.Iвасюк)
    Quality: MPEG 95%
    ===========================================
    Track: 03 - Гей, ви, хлопці молодії (у.н.п.,обр.Б.Кудли)
    Quality: MPEG 95%
    ===========================================
    Track: 04 - Бодай ся когут знудив (у.н.п.,обр.Б.Кудли)
    Quality: MPEG 95%
    ===========================================
    Track: 05 - Верховинська колискова (Б.Янiвський-Б.Стельмах)
    Quality: MPEG 95%
    ===========================================
    Track: 06 - Як я спала на сені (у.н.п.,обр.Б.Кудли)
    Quality: MPEG 95%
    ===========================================
    Track: 07 - Чорні очка, як терен (у.н.п.,обр.Б.Кудли)
    Quality: MPEG 95%
    ===========================================
    Track: 08 - Відлуння в горах (В.Iльїн-В.Канаш)
    Quality: MPEG 95%
    ===========================================
    Track: 09 - Балада про дві скрипки (В.Iвасюк-В.Марсюк)
    Quality: MPEG 95%
    ===========================================
    Track: 10 - Івана Купала (В.Громцев-Л.Бучко)
    Quality: MPEG 95%
    ===========================================
    Track: 11 - Залишені квіти (Жовте листя) (В.Громцев-В.Iвасюк)
    Quality: MPEG 95%
    ===========================================
    Track: 12 - Ой, чий то кінь стоїть (у.н.п.,обр.Б.Кудли)
    Quality: MPEG 95%
    ===========================================
    2008 ВІА Водограй

    Пісні:
      01 - Запроси до танцю (В. Івасюк - Б. Стельмах)
      02 - Незване моє кохання (В. Івасюк - Р. Братунь)
      03 - Дівчина мила (Українська народна пісня)
      04 - Путешествие (О. Косько)
      05 - Несла дівчина воду (Українська народна пісня)
      06 - Тебе на зло (М. Некрич - Ю. Финкель)
      07 - Вишневый рассвет (М. Некрич - А. Вратарева)
      08 - Воспоминание (О. Косько)
      09 - Родине (О. Тевторадзе - Е. Стюарт)

    Тривалість: 00:34:46
    Мова: українська (1-3,5), російська (4,6-9)
    Бітрейт: 803 кбіт/с
    log
    Exact Audio Copy V1.0 beta 3 from 29. August 2011

    EAC extraction logfile from 17. October 2011, 17:39

    ВІА "Водограй" / Українські ВІА

    Used drive : HL-DT-STDVDRAM GH20NS10 Adapter: 3 ID: 0

    Read mode : Secure
    Utilize accurate stream : Yes
    Defeat audio cache : Yes
    Make use of C2 pointers : No

    Read offset correction : 667
    Overread into Lead-In and Lead-Out : No
    Fill up missing offset samples with silence : Yes
    Delete leading and trailing silent blocks : No
    Null samples used in CRC calculations : Yes
    Used interface : Native Win32 interface for Win NT & 2000

    Used output format : User Defined Encoder
    Selected bitrate : 896 kBit/s
    Quality : High
    Add ID3 tag : No
    Command line compressor : C:\Program Files (x86)\Exact Audio Copy\wavpack.exe
    Additional command line options : -hm %source% %dest%

    TOC of the extracted CD

    Track | Start | Length | Start sector | End sector
    ---------------------------------------------------------
    1 | 0:00.00 | 4:16.03 | 0 | 19202
    2 | 4:16.03 | 4:10.29 | 19203 | 37981
    3 | 8:26.32 | 2:57.68 | 37982 | 51324
    4 | 11:24.25 | 4:09.16 | 51325 | 70015
    5 | 15:33.41 | 4:09.28 | 70016 | 88718
    6 | 19:42.69 | 3:46.21 | 88719 | 105689
    7 | 23:29.15 | 4:12.34 | 105690 | 124623
    8 | 27:41.49 | 3:21.66 | 124624 | 139764
    9 | 31:03.40 | 3:42.38 | 139765 | 156452

    Range status and errors

    Selected range

    Filename C:\Users\Андрей\Music\ВІА ''Водограй'' - Українські ВІА\ВІА ''Водограй'' - Українські ВІА.wav

    Peak level 100.0 %
    Extraction speed 7.0 X
    Range quality 100.0 %
    Test CRC 9F1D5C4C
    Copy CRC 9F1D5C4C
    Copy OK

    No errors occurred

    AccurateRip summary

    Track 1 not present in database
    Track 2 not present in database
    Track 3 not present in database
    Track 4 not present in database
    Track 5 not present in database
    Track 6 not present in database
    Track 7 not present in database
    Track 8 not present in database
    Track 9 not present in database

    None of the tracks are present in the AccurateRip database

    End of status report

    ==== Log checksum 8B282151867F932C2BD55E788C2485B06230A6D448B5EA6BEAC6CBAB8FBA50A0 ====
    fooCDtect
    fooCDtect - foobar2000 + auCDtect, baralgin.

    auCDtect: CD records authenticity detector, version 0.8.2
    Copyright (c) 2004 Oleg Berngardt. All rights reserved.
    Copyright (c) 2004 Alexander Djourik. All rights reserved.

    mode: 0

    ===========================================
    Track: 01 - Запроси до танцю (В. Івасюк - Б. Стельмах)
    Quality: MPEG 95%
    ===========================================
    Track: 02 - Незване моє кохання (В. Івасюк - Р. Братунь)
    Quality: MPEG 95%
    ===========================================
    Track: 03 - Дівчина мила (Українська народна пісня)
    Quality: MPEG 95%
    ===========================================
    Track: 04 - Путешествие (О. Косько)
    Quality: MPEG 95%
    ===========================================
    Track: 05 - Несла дівчина воду (Українська народна пісня)
    Quality: MPEG 95%
    ===========================================
    Track: 06 - Тебе на зло (М. Некрич - Ю. Финкель)
    Quality: MPEG 95%
    ===========================================
    Track: 07 - Вишневый рассвет (М. Некрич - А. Вратарева)
    Quality: MPEG 95%
    ===========================================
    Track: 08 - Воспоминание (О. Косько)
    Quality: MPEG 95%
    ===========================================
    Track: 09 - Родине (О. Тевторадзе - Е. Стюарт)
    Quality: MPEG 95%
    ===========================================
    2008 ВІА Кобза
    VA (Ватра, Водограй, Кобза, Смерічка, Тріо Маренич) - Українські ВІА (5CD) (2007-2008) [FLAC] | Pop Folk
    Пісні:
      01 - Ой при лужку, при лужку
      02 - Ніч яка місячна
      03 - Дударик
      04 - Балада про двох лебедів
      05 - Голубівна
      06 - На Івана Купала
      07 - Водограй
      08 - Веснянка
      09 - Зайчик
      10 - Ой поїхав за снопами
      11 - Ой кину я бук на яму
      12 - Лісова пісня
      13 - Та й орав мужик край дороги
      14 - Співайте разом з нами
      15 - Щедрівка
      16 - Ішов кобзар чистим полем
      17 - Ой гаю, гаю
      18 - Ой ходила дівчина бережком
      19 - Ішов козак потайком
      20 - У суботу молотив я
      21 - Люби мене
      22 - Дума
      23 - Впали дві зірниці

    Тривалість: 01:10:08
    Мова: українська
    Бітрейт: 701 кбіт/с
    log
    Exact Audio Copy V0.99 prebeta 4 from 23. January 2008

    Отчёт EAC об извлечении, выполненном 28. августа 2008, 1:08

    ВІА Кобза / Українські ВІА

    Дисковод: Optiarc DVD RW AD-7530A Adapter: 1 ID: 1

    Режим чтения : Достоверность
    Использование точного потока : Да
    Отключение кэша аудио : Да
    Использование указателей C2 : Нет

    Коррекция смещения при чтении : 6
    Способность читать области Lead-in и Lead-out : Нет
    Заполнение пропущенных сэмплов тишиной : Да
    Удаление блоков с тишиной в начале и конце : Нет
    При вычислениях CRC использовались нулевые сэмплы : Да
    Интерфейс : Встроенный Win32-интерфейс для Win NT/2000

    Выходной формат : Внутренние WAV-операции
    Формат сэмплов : 44.100 Гц; 16 бит; стерео

    TOC извлечённого CD

    Трек | Старт | Длительность | Начальный сектор | Конечный сектор
    ---------------------------------------------------------------------
    1 | 0:00.00 | 3:07.09 | 0 | 14033
    2 | 3:07.09 | 2:33.74 | 14034 | 25582
    3 | 5:41.08 | 3:04.60 | 25583 | 39442
    4 | 8:45.68 | 2:39.24 | 39443 | 51391
    5 | 11:25.17 | 3:06.23 | 51392 | 65364
    6 | 14:31.40 | 2:53.29 | 65365 | 78368
    7 | 17:24.69 | 2:58.04 | 78369 | 91722
    8 | 20:22.73 | 2:01.66 | 91723 | 100863
    9 | 22:24.64 | 3:10.48 | 100864 | 115161
    10 | 25:35.37 | 2:49.17 | 115162 | 127853
    11 | 28:24.54 | 2:01.11 | 127854 | 136939
    12 | 30:25.65 | 3:10.68 | 136940 | 151257
    13 | 33:36.58 | 1:40.24 | 151258 | 158781
    14 | 35:17.07 | 1:58.63 | 158782 | 167694
    15 | 37:15.70 | 1:12.43 | 167695 | 173137
    16 | 38:28.38 | 4:42.59 | 173138 | 194346
    17 | 43:11.22 | 4:56.43 | 194347 | 216589
    18 | 48:07.65 | 3:27.16 | 216590 | 232130
    19 | 51:35.06 | 3:55.39 | 232131 | 249794
    20 | 55:30.45 | 4:40.29 | 249795 | 270823
    21 | 60:10.74 | 3:25.29 | 270824 | 286227
    22 | 63:36.28 | 3:42.68 | 286228 | 302945
    23 | 67:19.21 | 2:48.26 | 302946 | 315571

    Характеристики диапазона извлечения и сообщения об ошибках

    Выбранный диапазон

    Имя файла G:\Downloads\kobza - ukraine VIA.wav

    Пиковый уровень 63.8 %
    Качество диапазона 99.9 %
    CRC копии 5AF5F262
    Копирование... OK

    Ошибок не произошло

    Конец отчёта
    fooCDtect
    fooCDtect - foobar2000 + auCDtect, baralgin.

    auCDtect: CD records authenticity detector, version 0.8.2
    Copyright (c) 2004 Oleg Berngardt. All rights reserved.
    Copyright (c) 2004 Alexander Djourik. All rights reserved.

    mode: 0

    ===========================================
    Track: 01 - Ой при лужку, при лужку
    Quality: CDDA 100%
    ===========================================
    Track: 02 - Ніч яка місячна
    Quality: CDDA 100%
    ===========================================
    Track: 03 - Дударик
    Quality: CDDA 100%
    ===========================================
    Track: 04 - Балада про двох лебедів
    Quality: CDDA 100%
    ===========================================
    Track: 05 - Голубівна
    Quality: CDDA 100%
    ===========================================
    Track: 06 - На Івана Купала
    Quality: CDDA 100%
    ===========================================
    Track: 07 - Водограй
    Quality: CDDA 100%
    ===========================================
    Track: 08 - Веснянка
    Quality: CDDA 100%
    ===========================================
    Track: 09 - Зайчик
    Quality: CDDA 100%
    ===========================================
    Track: 10 - Ой поїхав за снопами
    Quality: CDDA 99%
    ===========================================
    Track: 11 - Ой кину я бук на яму
    Quality: CDDA 100%
    ===========================================
    Track: 12 - Лісова пісня
    Quality: CDDA 100%
    ===========================================
    Track: 13 - Та й орав мужик край дороги
    Quality: CDDA 100%
    ===========================================
    Track: 14 - Співайте разом з нами
    Quality: CDDA 100%
    ===========================================
    Track: 15 - Щедрівка
    Quality: CDDA 100%
    ===========================================
    Track: 16 - Ішов кобзар чистим полем
    Quality: CDDA 99%
    ===========================================
    Track: 17 - Ой гаю, гаю
    Quality: CDDA 100%
    ===========================================
    Track: 18 - Ой ходила дівчина бережком
    Quality: CDDA 99%
    ===========================================
    Track: 19 - Ішов козак потайком
    Quality: CDDA 100%
    ===========================================
    Track: 20 - У суботу молотив я
    Quality: CDDA 99%
    ===========================================
    Track: 21 - Люби мене
    Quality: CDDA 99%
    ===========================================
    Track: 22 - Дума
    Quality: CDDA 100%
    ===========================================
    Track: 23 - Впали дві зірниці
    Quality: CDDA 100%
    ===========================================

Тривалість: 03:39:24
Мова: українська, російська
Аудіо-кодек: FLAC
Бітрейт: 648-803 кб/с
Джерело: нетлаб та інший трекер

Якщо Ви справді бажаєте підтримати українське - після прослуховування, якщо музика вам сподобалась,
придбайте ліцензійний диск.
Підтримаймо вітчизняних виконавців!


Срібний реліз (на рейтинг впливає 50% завантаженого)
 Трекер:    Зареєстрований   

Завантажити / скачати українську музику



відео для новачків



 Зареєстрований:   2015-09-20 19:30
 Розмір:   1.2 GB 
 Оцінка музики:   6.6/10 (Голосів: 32)
   
ssTAss 
Модератор музики


З нами з: 05.07.08
Востаннє: 10.12.16
Повідомлень: 10950

2015-09-20 19:31  
торрент оновлено
додано 5 диск (Тріо Маренич)
прохання перевантажити

Ваш часовий пояс: GMT + 2 Години

Нова тема   Відповісти