Завантажити та скачати торренти українською


Рейд: Відплата / Serbuan maut (2011) 720p-mini Ukr | Sub Kor

Нові коментарі

Нова тема   Відповісти
Автор Повідомлення
Anonymous 







2012-06-04 09:36  
Рейд: Відплата / Serbuan maut (2011) 720p-mini Ukr | Sub Kor

Рейд: Відплата / Serbuan maut (2011) 720p-mini Ukr | Sub Kor
Оригінальний постер:
Рейд: Відплата / Serbuan maut (2011) 720p-mini Ukr | Sub Kor


Жанр: екшн, кримінальний, трилер
Країна: Індонезія, США



Кіностудія / кінокомпанія: Pt. Merantau Films, XYZ Films
Режисер: Гарет Еванс
Актори: Іко Ювайс, Джо Таслім, Доні Аламсях, Рей Сахетапі, Іанг Дармаван

Сюжет:
Загін спецпідрозділу відправляється на рейд в 30 поверховий житловий будинок, де за деякими даними знаходиться притулок впливового наркобарона. Однак дістатися до нього виявляється складним завданням, адже на шляху стоїть справжня армія головорізів, готових за свого боса розірвати будь-кого. Через безглузду випадковість таємна операція по затриманню наркобарона перетворюється в криваву бійню без всяких правил, де виживуть тільки найсильніші...


Тривалість: 01:40:40
Якість: 720p (Serbuan.maut.The.Raid.Redemption.2011.720p..H264-PREGM)
Відео:
кодек: MPEG4/H264
розмір кадру: 1280х720
бітрейт: 2965 кб/с

Аудіо:
мова: українська
переклад: одноголосий закадровий
кодек: 2.0
бітрейт: 192 кб/с

Джерело озвучення: shevron
Переклад: zamez

Субтитри:
мова: корейська
тип: вбудовані (жорсткі)

MediaInfo

Format : Matroska
Format version : Version 1
File size : 2.27 GiB
Duration : 1h 40mn
Overall bit rate : 3 221 Kbps
Encoded date : UTC 2012-06-04 07:27:57
Writing application : mkvmerge v2.4.2 ('Oh My God') built on Jan 18 2009 17:30:28
Writing library : libebml v0.7.7 + libmatroska v0.8.1
Video #1
ID : 1
Format : AVC
Format/Info : Advanced Video Codec
Format profile : [email protected]
Format settings, CABAC : No
Format settings, ReFrames : 3 frames
Codec ID : V_MPEG4/ISO/AVC
Duration : 1h 40mn
Bit rate : 2 965 Kbps
Width : 1 280 pixels
Height : 720 pixels
Display aspect ratio : 16:9
Frame rate : 29.970 fps
Standard : NTSC
Color space : YUV
Chroma subsampling : 4:2:0
Bit depth : 8 bits
Scan type : Progressive
Bits/(Pixel*Frame) : 0.107
Stream size : 2.08 GiB (92%)
Language : English
Audio #2
ID : 2
Format : AC-3
Format/Info : Audio Coding 3
Mode extension : CM (complete main)
Codec ID : A_AC3
Duration : 1h 40mn
Bit rate mode : Constant
Bit rate : 192 Kbps
Channel(s) : 2 channels
Channel positions : Front: L R
Sampling rate : 44.1 KHz
Bit depth : 16 bits
Compression mode : Lossy
Stream size : 138 MiB (6%)
Language : Ukrainian
Скріншоти




Джерело: &
Особиста оцінка: 4/10



Золотий реліз (завантажене не впливає на рейтинг)
 Трекер:    Зареєстрований   

Завантажити / скачати фільм українською



відео для новачків



 Зареєстрований:   2012-06-04 09:36
 Розмір:   2.27 GB 
 Оцінка фільму:   8.9/10 (Голосів: 26)
   
Інші релізи
   Рейд: Відплата / Serbuan maut (2011) Skiff  6 / 0   1.46 GB   2012-06-03 13:28 
olyx 
Відео Гуртом - підтримка та поширення
Відео Гуртом - підтримка та поширення


З нами з: 25.01.10
Востаннє: 05.10.16
Повідомлень: 231

2012-06-04 19:42  
Не зрозумійте мене неправильно, але чому одні релізи перевіряються швидко, а інші ну напрочуд довго???
braveboy 
Відео Гуртом - команда HD
Відео Гуртом - команда HD


З нами з: 15.06.10
Востаннє: 29.10.16
Повідомлень: 958

2012-06-05 18:45  
Гість написано:
Bits/(Pixel*Frame) : 0.107


Цитата:
9. Обов"язкові вимоги до нестандартних релізів 720р-міні/1080р-міні
Заборонено викладати релізи, де відео має Bits/(Pixel*Frame) менше, ніж 0.12(загальне для всіх - і для 720/1080р) для фільмів/серіалів/документального

YaroslavMir41 
Свій


З нами з: 29.10.08
Востаннє: 04.06.16
Повідомлень: 70

2012-06-07 10:14  
Текст перекладу лайно повне...
DiGen 
Модератор HD та координатор Команди HD
Модератор HD та координатор Команди HD


З нами з: 12.11.09
Востаннє: 24.06.13
Повідомлень: 1452

2012-06-07 13:47  
braveboy
Не всі напевне люблять читати правила....на жаль.

olyx 
Відео Гуртом - підтримка та поширення
Відео Гуртом - підтримка та поширення


З нами з: 25.01.10
Востаннє: 05.10.16
Повідомлень: 231

2012-06-13 11:19  
Дуже потужний фільм, давно не бачив настільки якісного бойовика...
Автору велика дяка. при нагоді викладайте ще...

okzdp 
Поважний учасник


З нами з: 27.05.09
Востаннє: 05.12.16
Повідомлень: 209

2012-07-27 19:39  
Прикольний фільм, м'ясо)
Cumva 
Новенький


З нами з: 03.07.12
Востаннє: 17.11.16
Повідомлень: 14

2012-09-08 17:37  
У вас часом немає субтитрів українською?
Не часто мені подобається одноголоса озвучка

bot 
робот


З нами з: 30.09.07
Востаннє: 26.05.05
Повідомлень: 16001

2012-09-21 13:17  
Тему перенесено з Фільми в HD до форуму Неоформлене відео


urij546724

ANDREW-LVIV 
Свій


З нами з: 11.02.09
Востаннє: 03.12.16
Повідомлень: 74

2012-11-25 22:54  
Мені сподобався дуже. також давно такого кіна не бачив. а головне, що там мої Індонезійці знялися!!!!
natashelka 
VIP


З нами з: 23.05.10
Востаннє: 05.12.16
Повідомлень: 441

2013-04-12 23:15  
Акуена (с) - гурт що співає пісню "растамани п'ють чай) Фільм захоплює і тримає в тонусі до кінця. Абсолютно рекомендовано до перегляду. 9 з 10
waldi-hurtom 
VIP


З нами з: 07.10.12
Востаннє: 05.12.16
Повідомлень: 611

2013-04-13 20:03  
Кацапський переклад у гімняному фільмі для дебілів, для яких весь світ обмежений матом. Повне лайно!
natashelka 
VIP


З нами з: 23.05.10
Востаннє: 05.12.16
Повідомлень: 441

2013-08-10 20:03  
2waldi-hurtom
у цьому фільмі присутнє головне для екшена - атмосферність. я не думаю, що творці фільму оперували захмарним бюджетом, але змогли зняти сцену за долар, від якої неможливо відірватися. а взагалі якщо вам не подобаються екшни, то може не варто їх переглядати? що ж по waldi-hurtom є не гімняним фільмом серед екшенів? можете назвати?

Ваш часовий пояс: GMT + 2 Години

Нова тема   Відповісти