Завантажити та скачати торренти українською


Такер і Дейл проти зла / Tucker and Dale vs Evil (2010) 720p

Нові коментарі

Нова тема   Відповісти
Автор Повідомлення
TRO[9]N 
Відео Гуртом - озвучення
Відео Гуртом - озвучення


З нами з: 09.06.11
Востаннє: 27.11.16
Повідомлень: 618

2012-06-03 20:20  
Такер і Дейл проти зла / Tucker and Dale vs Evil (2010) 720p

Такер і Дейл проти зла / Tucker and Dale vs Evil (2010) 720p


Жанр: жахи, комедія
Країна: Канада



Кіностудія / кінокомпанія: Eden Rock Media, Looby Lou, Reliance Motion Picture Company
Режисер: Елі Крейг
Актори: Тайлер Лебін, Алан Тьюдік, Кеті Боуден, Джесі Мос, Філіп Грейнджер, Брендон Джей МакЛарен, Крісті Лейн, Челан Сімонс, Тревіс Нельсон, Алекс Арсено

Сюжет:
Компанія студентів з коледжу відправляється за місто, щоб щосили відірватися на вихідних: попити пива, поплавати в озері і подихати чистим лісовим повітрям. Але вже першого ж дня вони зустрічаються з місцевими фермерами Такером і Дейлом, які вирішили подивитись на нещодавно куплений будинок і відремонтувати його. Прийнявши цих "диких", але, по суті, симпатичних хлопців за «злісних місцевих», міські студенти вирішують дати селюкам жорстку відсіч. Але з кожним їхнім кроком стає тільки гірше ....


Тривалість: 01:28:39
Якість:
Відео:
кодек:
розмір кадру: 1280 х 554
бітрейт: 5554 кб/с

Аудіо # 1:
мова: українська
переклад: багатоголосий закадровий
кодек: 5.1
бітрейт: 448 кб/с

Джерело озвучення:
MediaInfo
General
General
Unique ID : 186588853819535610622215286132386539443 (0x8C5FB4C20D3ACDCEAF6CC52AE32FA7B3)
Complete name : D:\1111\Tucker and Dale vs Evil.(2010). 720p.[MonsterMix,Hurtom.com].mkv
Format : Matroska
Format version : Version 2
File size : 3.72 GiB
Duration : 1h 28mn
Overall bit rate : 6 002 Kbps
Encoded date : UTC 2012-06-03 20:15:14
Writing application : mkvmerge v4.9.1 ('Ich will') сборка от Jul 11 2011 23:53:15
Writing library : libebml v1.2.1 + libmatroska v1.1.1

Video
ID : 1
Format : AVC
Format/Info : Advanced Video Codec
Format profile : [email protected]
Format settings, CABAC : Yes
Format settings, ReFrames : 8 frames
Codec ID : V_MPEG4/ISO/AVC
Duration : 1h 28mn
Bit rate : 5 554 Kbps
Width : 1 280 pixels
Height : 554 pixels
Display aspect ratio : 2.35:1
Frame rate : 23.976 fps
Color space : YUV
Chroma subsampling : 4:2:0
Bit depth : 8 bits
Scan type : Progressive
Bits/(Pixel*Frame) : 0.327
Stream size : 3.37 GiB (91%)
Title : hahay0yo
Writing library : core 80 r1376M 3feaec2
Encoding settings : cabac=1 / ref=9 / deblock=1:-3:-3 / analyse=0x3:0x113 / me=umh / subme=9 / psy=1 / psy_rd=1.0:0.0 / mixed_ref=1 / me_range=32 / chroma_me=1 / trellis=0 / 8x8dct=1 / cqm=0 / deadzone=21,11 / fast_pskip=1 / chroma_qp_offset=-2 / threads=12 / sliced_threads=0 / slices=4 / nr=0 / decimate=1 / mbaff=0 / constrained_intra=0 / bframes=6 / b_pyramid=1 / b_adapt=1 / b_bias=0 / direct=1 / wpredb=1 / wpredp=2 / keyint=24 / keyint_min=2 / scenecut=40 / rc_lookahead=24 / rc=2pass / mbtree=1 / bitrate=5554 / ratetol=1.0 / qcomp=0.60 / qpmin=10 / qpmax=51 / qpstep=4 / cplxblur=20.0 / qblur=0.5 / ip_ratio=1.40 / aq=1:1.00
Language : English

Audio
ID : 2
Format : AC-3
Format/Info : Audio Coding 3
Mode extension : CM (complete main)
Muxing mode : Header stripping
Codec ID : A_AC3
Duration : 1h 28mn
Bit rate mode : Constant
Bit rate : 448 Kbps
Channel(s) : 6 channels
Channel positions : Front: L C R, Side: L R, LFE
Sampling rate : 48.0 KHz
Bit depth : 16 bits
Compression mode : Lossy
Stream size : 284 MiB (7%)
Language : Ukrainian
Скріншоти








Над релізом працювали

Озвучення: TRO[9]N, --Rom--, Марина Халвичка, -GHOST-
Постер: --Rom--
Монтаж: --Rom--
Особиста оцінка: 10 - без зайвих вагань рекомендую всім!


Авторський реліз (завантажувати можна без реєстрації)
 Трекер:    Зареєстрований   

Завантажити / скачати фільм українською



відео для новачків



 Зареєстрований:   2012-06-03 22:36
 Розмір:   3.72 GB 
 Оцінка фільму:   10/10 (Голосів: 15)
   
merlot 
Частий відвідувач


З нами з: 19.03.11
Востаннє: 04.12.16
Повідомлень: 32

2012-06-03 21:21  
Кіно просто СУПЕР!!!

Додано через 1 хвилину 12 секунд:

ДУЖЕ тупе і ДУЖЕ ржачне

TRO[9]N 
Відео Гуртом - озвучення
Відео Гуртом - озвучення


З нами з: 09.06.11
Востаннє: 27.11.16
Повідомлень: 618

2012-06-03 22:38  
GTПЕРЕЗАЛИВ ТОРЕНТ-ФАЙЛ!
vic88888888 
Свій


З нами з: 11.11.10
Востаннє: 30.11.16
Повідомлень: 66

2012-06-04 16:57  
Подяка за реліз. А фільм дійсно не типовий, місцями тупий, місцями кумедний, ото "завернули". Та дивитись можна, навіть треба. Іноді такі фільми краще, ніж такі, як то переглянув і невідомо чи в сміття, чи куди. А тут просто - глянув і "деліт його маму".
olyx 
Відео Гуртом - підтримка та поширення
Відео Гуртом - підтримка та поширення


З нами з: 25.01.10
Востаннє: 05.10.16
Повідомлень: 231

2012-06-05 15:31  
Знову закінчення перевірки планується на друге пришестя?)))
TRO[9]N 
Відео Гуртом - озвучення
Відео Гуртом - озвучення


З нами з: 09.06.11
Востаннє: 27.11.16
Повідомлень: 618

2012-06-05 17:52  
olyx написано:
Знову закінчення перевірки планується на друге пришестя?)))

Напевно)Деякі люди спеціально чекають золота, а тут так затягують)

olyx 
Відео Гуртом - підтримка та поширення
Відео Гуртом - підтримка та поширення


З нами з: 25.01.10
Востаннє: 05.10.16
Повідомлень: 231

2012-06-05 18:33  
Так і я про що. А ще непоодинокі випадки, коли завантажуєш одразу після викладення релізу (до перевірки), а він потім змінюється і для того, щоб підтримати потрібно вантажити знову. Часом аж злість бере...
А взагалі довгі перевірки на мою думку це неповага до праці релізерів зі сторони модераторів чи адміністрації - не знаю хто за це відповідає...

Givi 
Модератор відео


З нами з: 25.02.08
Востаннє: 06.12.16
Повідомлень: 2862

2012-06-05 22:34  
TRO[9]N написано:
бітрейт: 7061 кб/с

TRO[9]N написано:
Bit rate : 5 554 Kbps

????

TRO[9]N 
Відео Гуртом - озвучення
Відео Гуртом - озвучення


З нами з: 09.06.11
Востаннє: 27.11.16
Повідомлень: 618

2012-06-06 07:37  
Givi написано:
????

Виправив)

Krutyvuss 
Свій


З нами з: 01.08.10
Востаннє: 01.12.16
Повідомлень: 72

2012-06-12 14:35  
ДЯКУЮ. Розслабився.
okzdp 
Поважний учасник


З нами з: 27.05.09
Востаннє: 06.12.16
Повідомлень: 209

2012-06-21 21:19  
Дякую, качаю)
Ваш часовий пояс: GMT + 2 Години

Нова тема   Відповісти