Завантажити та скачати торренти українською


Хроніка [Розширена версія] / Chronicle [EXTENDED] (2012) AVC Ukr/Eng

Нові коментарі

Нова тема   Відповісти
Автор Повідомлення
Anonymous 







2012-06-02 22:39  
Хроніка [Розширена версія] / Chronicle [EXTENDED] (2012) AVC Ukr/Eng


Жанр: фантастика, триллер, драма
Країна: США, Великобританія



Кіностудія / кінокомпанія: 20th Century Fox
Режисер: Джошуа Транк
Актори: Майкл Джордан, Майкл Келлі, Дейн ДіХаан, Алекс Расселл, Хосе Вас, Меттью Робертс, Люк Стейн та інші

Сюжет:
Три школяра отримують супер здібності після виявлення впавшого метеорита. Скоро вони потраплять у вир подій, в якому відкриються їх темні сторони.


Тривалість: 01:29:36
Якість:
Відео:
кодек:
розмір кадру: 1056 x 572
бітрейт: 2591 кб/с

Аудіо # 1:
мова: українська
переклад: професійний дубльований
кодек: 5.1
бітрейт: 448 кб/с

Аудіо # 2:
мова: англійська
переклад: оригінал
кодек: 5.1
бітрейт: 448 кб/с

Джерело озвучення:
MediaInfo
General
Unique ID : 177084949827725836723856467165207489088 (0x8539521D27646E24B18BB057C6E66A40)
Complete name : C:\Users\Vasua95\Downloads\Chronicle [EXTENDED] (2012) AVC [ukr,eng] [hurtom].mkv
Format : Matroska
Format version : Version 2
File size : 2.18 GiB
Duration : 1h 29mn
Overall bit rate : 3 487 Kbps
Encoded date : UTC 2012-06-02 20:23:22
Writing application : mkvmerge v5.5.0 ('Healer') built on Apr 6 2012 21:43:24
Writing library : libebml v1.2.3 + libmatroska v1.3.0

Video
ID : 1
Format : AVC
Format/Info : Advanced Video Codec
Format profile : [email protected]
Format settings, CABAC : Yes
Format settings, ReFrames : 12 frames
Codec ID : V_MPEG4/ISO/AVC
Duration : 1h 29mn
Bit rate : 2 591 Kbps
Width : 1 056 pixels
Height : 572 pixels
Display aspect ratio : 1.85:1
Frame rate : 23.976 fps
Color space : YUV
Chroma subsampling : 4:2:0
Bit depth : 8 bits
Scan type : Progressive
Bits/(Pixel*Frame) : 0.179
Stream size : 1.58 GiB (72%)
Writing library : core 125 r2200 999b753
Encoding settings : cabac=1 / ref=12 / deblock=1:-2:-1 / analyse=0x3:0x133 / me=umh / subme=10 / psy=1 / psy_rd=0.90:0.05 / mixed_ref=1 / me_range=64 / chroma_me=1 / trellis=2 / 8x8dct=1 / cqm=0 / deadzone=21,11 / fast_pskip=0 / chroma_qp_offset=-3 / threads=12 / lookahead_threads=2 / sliced_threads=0 / nr=0 / decimate=0 / interlaced=0 / bluray_compat=0 / constrained_intra=0 / bframes=13 / b_pyramid=2 / b_adapt=2 / b_bias=0 / direct=3 / weightb=1 / open_gop=0 / weightp=2 / keyint=240 / keyint_min=22 / scenecut=40 / intra_refresh=0 / rc_lookahead=60 / rc=2pass / mbtree=0 / bitrate=2591 / ratetol=1.0 / qcomp=0.75 / qpmin=0 / qpmax=69 / qpstep=4 / cplxblur=20.0 / qblur=0.5 / vbv_maxrate=50000 / vbv_bufsize=62500 / nal_hrd=none / ip_ratio=1.35 / pb_ratio=1.40 / aq=1:0.70 / zones=120751,128903,q=35
Language : English
Default : Yes
Forced : No
Color primaries : BT.709-5, BT.1361, IEC 61966-2-4, SMPTE RP177
Transfer characteristics : BT.709-5, BT.1361
Matrix coefficients : BT.709-5, BT.1361, IEC 61966-2-4 709, SMPTE RP177

Audio #1
ID : 2
Format : AC-3
Format/Info : Audio Coding 3
Mode extension : CM (complete main)
Format settings, Endianness : Big
Codec ID : A_AC3
Duration : 1h 29mn
Bit rate mode : Constant
Bit rate : 448 Kbps
Channel(s) : 6 channels
Channel positions : Front: L C R, Side: L R, LFE
Sampling rate : 48.0 KHz
Bit depth : 16 bits
Compression mode : Lossy
Stream size : 287 MiB (13%)
Language : Ukrainian
Default : Yes
Forced : No

Audio #2
ID : 3
Format : AC-3
Format/Info : Audio Coding 3
Mode extension : CM (complete main)
Format settings, Endianness : Big
Codec ID : A_AC3
Duration : 1h 29mn
Bit rate mode : Constant
Bit rate : 448 Kbps
Channel(s) : 6 channels
Channel positions : Front: L C R, Side: L R, LFE
Sampling rate : 48.0 KHz
Bit depth : 16 bits
Compression mode : Lossy
Stream size : 287 MiB (13%)
Language : English
Default : No
Forced : No
Скріншоти




Джерело: &
Особиста оцінка: 10 - без зайвих вагань рекомендую всім!


 Трекер:    Зареєстрований   

Завантажити / скачати фільм українською



відео для новачків



 Зареєстрований:   2012-06-02 22:39
 Розмір:   2.18 GB 
 Оцінка фільму:   8.4/10 (Голосів: 38)
   
respect14 
VIP


З нами з: 26.01.11
Востаннє: 03.12.16
Повідомлень: 376

2012-06-02 23:53  
Скажіть чи по якості AVC гірший за звичайний БДріп??
legos25 
Відео Гуртом - запис з ТБ
Відео Гуртом - запис з ТБ


З нами з: 02.02.10
Востаннє: 04.12.16
Повідомлень: 1105

2012-06-03 00:10  
respect14 написано:
Скажіть чи по якості AVC гірший за звичайний БДріп??

Навпаки, кращий.

Imperatore 
Відео Гуртом - підтримка та поширення
Відео Гуртом - підтримка та поширення


З нами з: 09.10.11
Востаннє: 03.12.16
Повідомлень: 337

2012-06-04 22:06  
Класне кіно та суперовий сюжет, от тільки зйомки тупуваті... Sad (2)
INTER-FAN 
Свій


З нами з: 25.01.10
Востаннє: 03.12.16
Повідомлень: 60

2012-06-04 23:30  
Скажіть будь-ласка, а наскільки довша розширена версія?
assirs 
Частий відвідувач


З нами з: 26.01.10
Востаннє: 29.11.16
Повідомлень: 32

2012-06-05 22:46  
Цитата:
Три школяра отримують
???
Чи не краще написати: "Троє школярів"?

lefk 
Новенький


З нами з: 16.10.11
Востаннє: 05.11.16
Повідомлень: 1

2012-06-06 22:09  
Стандартний американський фільм
Раджу пошукати щось краще
Щиро жалію що переглянув його
"Особиста оцінка: 10 - без зайвих вагань рекомендую всім!"- побільше б обєктивності не завадить

Bohdan237 
Відео Гуртом - фільмокрай
Відео Гуртом - фільмокрай


З нами з: 12.02.12
Востаннє: 04.12.16
Повідомлень: 383

2012-06-10 01:02  
Спасибі за ріп чекав.
Автору велика подяка.

waloha 
VIP


З нами з: 29.12.09
Востаннє: 01.12.16
Повідомлень: 323

2012-06-14 20:29  
Чесно кажучи не дуже вразив фільм, навпаки. Нудний фільм, "Монстро" набагато цікавіший і динамічниший.
Bohdan237 
Відео Гуртом - фільмокрай
Відео Гуртом - фільмокрай


З нами з: 12.02.12
Востаннє: 04.12.16
Повідомлень: 383

2012-08-05 23:16  
waloha написано:
Чесно кажучи не дуже вразив фільм, навпаки. Нудний фільм, "Монстро" набагато цікавіший і динамічниший.

Можливо й так помилкою було те що фільм знімався так якби самими героями на їхні власні відеокамери!

Ваш часовий пояс: GMT + 2 Години

Нова тема   Відповісти