Завантажити та скачати торренти українською


Люди в чорному - Трилогія / Men in Black - Trilogy (1997/2002/2012) 720p Ukr/Eng | Sub Eng

Нові коментарі

Нова тема   Відповісти
Автор Повідомлення
Zeus62 
Відео Гуртом - команда HD
Відео Гуртом - команда HD


З нами з: 29.12.08
Востаннє: 16.11.16
Повідомлень: 330

2012-05-31 00:46  
Люди в чорному - Трилогія / Men in Black - Trilogy (1997/2002/2012) 720p Ukr/Eng | Sub Eng

Люди в чорному - Трилогія / Men in Black - Trilogy (1997/2002/2012) 720p Ukr/Eng | Sub Eng


Жанр: фантастика, пригодницький, комедія
Країна: США

Кіностудія / кінокомпанія: Columbia Pictures, Amblin Entertainment, Media Magik Entertainment, Parkes/MacDonald Productions
Режисер: Баррі Зонненфельд
Люди в чорному / Men in Black (1997) 720p Ukr/Eng | Sub Eng:

Люди в чорному / Men in Black (1997) 720p Ukr/Eng | Sub Eng





Актори: Уїлл Сміс, Томмі Лі Джоунс, Лінда Фіорентино, Вінсент Д'Онофріо, Ріп Торн

Сюжет:
Лише люди в чорному знають найбільш захищену таємницю світу: наша земля кишить прибульцями. Одні з них мирно співіснують з нами, інших полюють, виганяють і, іноді, навіть вбивають. Таку роботу виконують двоє найкращих агентів - Джей та Кей. Але коли на Землю прибуває велетенський тарган, навіть найновіша зброя та техніка можуть не врятувати. Якщо зупинити монстра не вдасться - Землі кінець.


Тривалість: 01:37:58
Якість:
Відео:
кодек:
розмір кадру: 1280 х 696
бітрейт: 5361 кб/с

Аудіо # 1:
мова: українська
переклад: багатоголосий закадровий |Так Треба Продакшн|
кодек: 5.1
бітрейт: 384 кб/с

Аудіо # 2:
мова: англійська
переклад: оригінал
кодек: 5.1
бітрейт: 384 кб/с

Субтитри # 1:
мова: англійська (Full)
тип: пререндерні
формат: *.pgs
MediaInfo:

File size : 4.20 GiB
Duration : 1h 37mn
Overall bit rate : 6 137 Kbps
Encoded date : UTC 2012-05-30 06:52:41
Writing application : mkvmerge v5.5.0 ('Healer') built on Apr 7 2012 12:04:29
Writing library : libebml v1.2.2 + libmatroska v1.3.0

Video
ID : 1
Format : AVC
Format/Info : Advanced Video Codec
Format profile : [email protected]
Format settings, CABAC : Yes
Format settings, ReFrames : 9 frames
Codec ID : V_MPEG4/ISO/AVC
Duration : 1h 37mn
Bit rate : 5 361 Kbps
Width : 1 280 pixels
Height : 696 pixels
Display aspect ratio : 1.85:1
Frame rate mode : Variable
Frame rate : 23.976 fps
Color space : YUV
Chroma subsampling : 4:2:0
Bit depth : 8 bits
Scan type : Progressive
Bits/(Pixel*Frame) : 0.251
Stream size : 3.59 GiB (85%)
Title : For Hurtom by Zeus62
Writing library : core 112
Encoding settings : cabac=1 / ref=9 / deblock=1:-3:-3 / analyse=0x3:0x113 / me=umh / subme=10 / psy=1 / psy_rd=1,00:0,00 / mixed_ref=1 / me_range=64 / chroma_me=1 / trellis=2 / 8x8dct=1 / cqm=0 / deadzone=21,11 / fast_pskip=1 / chroma_qp_offset=-2 / threads=9 / sliced_threads=0 / nr=0 / decimate=1 / interlaced=0 / constrained_intra=0 / bframes=9 / b_pyramid=2 / b_adapt=2 / b_bias=0 / direct=1 / weightb=1 / open_gop=0 / weightp=2 / keyint=240 / keyint_min=23 / scenecut=40 / intra_refresh=0 / rc_lookahead=50 / rc=2pass / mbtree=1 / bitrate=5361 / ratetol=1,0 / qcomp=0,60 / qpmin=3 / qpmax=51 / qpstep=4 / cplxblur=20,0 / qblur=0,5 / ip_ratio=1,40 / aq=1:1,00
Language : Ukrainian
Default : Yes
Forced : No
Color primaries : BT.709-5, BT.1361, IEC 61966-2-4, SMPTE RP177
Transfer characteristics : BT.709-5, BT.1361
Matrix coefficients : BT.709-5, BT.1361, IEC 61966-2-4 709, SMPTE RP177

Audio #1
ID : 2
Format : AC-3
Format/Info : Audio Coding 3
Mode extension : CM (complete main)
Format settings, Endianness : Big
Codec ID : A_AC3
Duration : 1h 37mn
Bit rate mode : Constant
Bit rate : 384 Kbps
Channel(s) : 6 channels
Channel positions : Front: L C R, Side: L R, LFE
Sampling rate : 48.0 KHz
Bit depth : 16 bits
Compression mode : Lossy
Delay relative to video : 8ms
Stream size : 269 MiB (6%)
Language : Ukrainian
Default : Yes
Forced : No

Audio #2
ID : 3
Format : AC-3
Format/Info : Audio Coding 3
Mode extension : CM (complete main)
Format settings, Endianness : Big
Codec ID : A_AC3
Duration : 1h 37mn
Bit rate mode : Constant
Bit rate : 384 Kbps
Channel(s) : 6 channels
Channel positions : Front: L C R, Side: L R, LFE
Sampling rate : 48.0 KHz
Bit depth : 16 bits
Compression mode : Lossy
Stream size : 269 MiB (6%)
Language : English
Default : No
Forced : No

Text
ID : 4
Format : PGS
Muxing mode : zlib
Codec ID : S_HDMV/PGS
Codec ID/Info : The same subtitle format used on BDs/HD-DVDs
Title : Full
Language : English
Default : No
Forced : No
log:
[info]: frame I:1134 Avg QP:14,94 size:128720 PSNR Mean Y:48,83 U:51,26 V:52,52 Avg:49,55 Global:49,14
[info]: frame P:29190 Avg QP:18,20 size: 50784 PSNR Mean Y:46,28 U:50,40 V:51,80 Avg:47,21 Global:46,36
[info]: frame B:110627 Avg QP:20,60 size: 20870 PSNR Mean Y:44,20 U:49,73 V:51,31 Avg:45,33 Global:45,02
[info]: consecutive B-frames: 1,3% 2,3% 5,3% 19,4% 18,8% 33,1% 9,7% 6,4% 2,5% 1,3%
[info]: mb I I16..4: 4,7% 84,1% 11,1%
[info]: mb P I16..4: 1,0% 11,9% 1,1% P16..4: 34,1% 28,7% 15,3% 0,0% 0,0% skip: 7,9%
[info]: mb B I16..4: 0,0% 1,5% 0,1% B16..8: 42,3% 15,9% 4,7% direct: 7,2% skip:28,2% L0:45,8% L1:43,1% BI:11,1%
[info]: 8x8 transform intra:86,4% inter:61,5%
[info]: coded y,uvDC,uvAC intra: 91,7% 78,0% 48,5% inter: 40,0% 19,3% 2,6%
[info]: i16 v,h,dc,p: 56% 14% 8% 22%
[info]: i8 v,h,dc,ddl,ddr,vr,hd,vl,hu: 12% 8% 7% 10% 15% 13% 13% 11% 12%
[info]: i4 v,h,dc,ddl,ddr,vr,hd,vl,hu: 13% 8% 4% 9% 16% 15% 13% 11% 11%
[info]: i8c dc,h,v,p: 43% 23% 18% 15%
[info]: Weighted P-Frames: Y:5,2% UV:2,9%
[info]: ref P L0: 40,2% 10,1% 19,1% 7,7% 7,1% 4,9% 4,9% 2,7% 2,9% 0,3% 0,0%
[info]: ref B L0: 66,2% 13,9% 7,5% 4,3% 3,3% 2,8% 1,5% 0,5%
[info]: ref B L1: 91,2% 8,8%
[info]: SSIM Mean Y:0,9779186 (16,560db)
[info]: PSNR Mean Y:44,665 U:49,882 V:51,423 Avg:45,752 Global:45,288 kb/s:5357,66
Скріншоти:
Original vs Encode




Люди в чорному 2 / Men in Black II (2002) 720p Ukr/Eng | Sub Eng:

Люди в чорному 2 / Men in Black II (2002) 720p Ukr/Eng | Sub Eng





Актори: Уілл Сміт, Томмі Лі Джонс, Лара Флінн Бойл, Джонні Ноксвиль, Розаріо Доусон

Сюжет:
Всі ці роки агент Кей вів розмірений спосіб життя, тоді як агент Джей продовжував безстрашно трудитися у рядах найсекретнішої організації в світі. Розслідуючи найзвичайнішу справу, агент Джей натикається на сліди диявольськи витонченої змови, задуманої Серліною, злісним монстром, що мешкає на Землі в образі сексуальної моделі.


Тривалість: 01:28:08
Якість:
Відео:
кодек:
розмір кадру: 1280 х 696
бітрейт: 6129 кб/с

Аудіо # 1:
мова: українська
переклад: двоголосий закадровий
кодек: 5.1
бітрейт: 448 кб/с

Аудіо # 2:
мова: англійська
переклад: оригінал
кодек: 5.1
бітрейт: 384 кб/с

Субтитри # 1:
мова: англійська (Full)
тип: програмні (м'які)
формат: *.srt
MediaInfo:

File size : 4.28 GiB
Duration : 1h 28mn
Overall bit rate : 6 957 Kbps
Encoded date : UTC 2012-05-30 22:17:34
Writing application : mkvmerge v5.5.0 ('Healer') built on Apr 7 2012 12:04:29
Writing library : libebml v1.2.2 + libmatroska v1.3.0

Video
ID : 1
Format : AVC
Format/Info : Advanced Video Codec
Format profile : [email protected]
Format settings, CABAC : Yes
Format settings, ReFrames : 9 frames
Codec ID : V_MPEG4/ISO/AVC
Duration : 1h 28mn
Bit rate : 6 129 Kbps
Width : 1 280 pixels
Height : 696 pixels
Display aspect ratio : 1.85:1
Frame rate mode : Variable
Frame rate : 23.976 fps
Color space : YUV
Chroma subsampling : 4:2:0
Bit depth : 8 bits
Scan type : Progressive
Bits/(Pixel*Frame) : 0.287
Stream size : 3.69 GiB (86%)
Title : For Hurtom by Zeus62
Writing library : core 112
Encoding settings : cabac=1 / ref=9 / deblock=1:-3:-3 / analyse=0x3:0x113 / me=umh / subme=10 / psy=1 / psy_rd=1,00:0,00 / mixed_ref=1 / me_range=64 / chroma_me=1 / trellis=2 / 8x8dct=1 / cqm=0 / deadzone=21,11 / fast_pskip=1 / chroma_qp_offset=-2 / threads=9 / sliced_threads=0 / nr=0 / decimate=1 / interlaced=0 / constrained_intra=0 / bframes=9 / b_pyramid=2 / b_adapt=2 / b_bias=0 / direct=1 / weightb=1 / open_gop=0 / weightp=2 / keyint=240 / keyint_min=23 / scenecut=40 / intra_refresh=0 / rc_lookahead=50 / rc=2pass / mbtree=1 / bitrate=6129 / ratetol=1,0 / qcomp=0,60 / qpmin=3 / qpmax=51 / qpstep=4 / cplxblur=20,0 / qblur=0,5 / ip_ratio=1,40 / aq=1:1,00
Language : Ukrainian
Default : Yes
Forced : No
Color primaries : BT.709-5, BT.1361, IEC 61966-2-4, SMPTE RP177
Transfer characteristics : BT.709-5, BT.1361
Matrix coefficients : BT.709-5, BT.1361, IEC 61966-2-4 709, SMPTE RP177

Audio #1
ID : 2
Format : AC-3
Format/Info : Audio Coding 3
Mode extension : CM (complete main)
Format settings, Endianness : Big
Codec ID : A_AC3
Duration : 1h 28mn
Bit rate mode : Constant
Bit rate : 448 Kbps
Channel(s) : 6 channels
Channel positions : Front: L C R, Side: L R, LFE
Sampling rate : 48.0 KHz
Bit depth : 16 bits
Compression mode : Lossy
Stream size : 282 MiB (6%)
Title : 5.1 448 kb/s by Zeus62 - 1+1
Language : Ukrainian
Default : Yes
Forced : No

Audio #2
ID : 3
Format : AC-3
Format/Info : Audio Coding 3
Mode extension : CM (complete main)
Format settings, Endianness : Big
Codec ID : A_AC3
Duration : 1h 28mn
Bit rate mode : Constant
Bit rate : 384 Kbps
Channel(s) : 6 channels
Channel positions : Front: L C R, Side: L R, LFE
Sampling rate : 48.0 KHz
Bit depth : 16 bits
Compression mode : Lossy
Stream size : 242 MiB (6%)
Language : English
Default : No
Forced : No

Text
ID : 4
Format : UTF-8
Codec ID : S_TEXT/UTF8
Codec ID/Info : UTF-8 Plain Text
Language : English
Default : No
Forced : No
log:
[info]: frame I:1210 Avg QP:13,68 size:148508 PSNR Mean Y:49,08 U:52,62 V:53,13 Avg:49,99 Global:49,65
[info]: frame P:27017 Avg QP:16,52 size: 56995 PSNR Mean Y:46,86 U:51,69 V:52,11 Avg:47,92 Global:47,10
[info]: frame B:98564 Avg QP:19,54 size: 23621 PSNR Mean Y:44,59 U:50,94 V:51,52 Avg:45,83 Global:45,38
[info]: consecutive B-frames: 1,6% 3,1% 6,3% 20,5% 17,0% 29,7% 8,5% 7,8% 3,3% 2,2%
[info]: mb I I16..4: 5,6% 79,0% 15,4%
[info]: mb P I16..4: 1,1% 13,2% 1,3% P16..4: 31,4% 28,2% 15,1% 0,0% 0,0% skip: 9,7%
[info]: mb B I16..4: 0,1% 2,0% 0,2% B16..8: 39,5% 16,4% 5,3% direct: 8,1% skip:28,5% L0:45,3% L1:41,1% BI:13,6%
[info]: 8x8 transform intra:84,9% inter:60,1%
[info]: coded y,uvDC,uvAC intra: 91,3% 76,0% 47,1% inter: 39,8% 20,1% 2,1%
[info]: i16 v,h,dc,p: 61% 13% 7% 20%
[info]: i8 v,h,dc,ddl,ddr,vr,hd,vl,hu: 12% 9% 9% 10% 13% 12% 12% 11% 12%
[info]: i4 v,h,dc,ddl,ddr,vr,hd,vl,hu: 14% 9% 5% 9% 15% 14% 13% 11% 12%
[info]: i8c dc,h,v,p: 44% 24% 18% 14%
[info]: Weighted P-Frames: Y:3,1% UV:1,9%
[info]: ref P L0: 40,4% 9,1% 19,5% 8,0% 7,3% 4,9% 4,8% 2,6% 2,9% 0,4% 0,0%
[info]: ref B L0: 66,6% 14,2% 7,4% 4,2% 3,1% 2,6% 1,4% 0,5%
[info]: ref B L1: 91,2% 8,8%
[info]: SSIM Mean Y:0,9815965 (17,351db)
[info]: PSNR Mean Y:45,119 U:51,114 V:51,663 Avg:46,317 Global:45,720 kb/s:6123,27
Скріншоти:
Original vs Encode




Люди в чорному 3 / Men in Black III (2012) 720p Ukr/Eng | Sub Eng:

Люди в чорному 3 / Men in Black III (2012) 720p Ukr/Eng | Sub Eng

Люди в чорному - Трилогія / Men in Black - Trilogy (1997/2002/2012) 720p Ukr/Eng | Sub Eng




Актори: Уілл Сміт, Джош Бролін, Томмі Лі Джонс, Джемейн Клемент, Майкл Стулбарг, Емма Томпсон, Еліс Ів, Майк Колтер, Білл Хейдер, Майкл Чернус

Сюжет:
Агент Джей дізнається, що ніякого захисного галактичного щита, здатного відбити іноземний удар, не існує. Він не побудував його, тому що був убитий в 1969 році. Агент повинен здійснити подорож у часі, щоб врятувати Землю і життя напарника.


Тривалість: 01:45:50
Якість:
Відео:
кодек:
розмір кадру: 1280 х 696
бітрейт: 5491 кб/с

Аудіо # 1:
мова: українська
переклад: професійний дубльований
кодек: 5.1
бітрейт: 640 кб/с

Аудіо # 2:
мова: англійська
переклад: оригінал
кодек: 5.1
бітрейт: 384 кб/с

Субтитри:
мова: англійська
тип: пререндерні
формат: *.pgs
MediaInfo:
Format : Matroska
Format version : Version 2
File size : 4.82 GiB
Duration : 1h 45mn
Overall bit rate : 6 523 Kbps
Encoded date : UTC 2012-09-12 21:20:49
Writing application : mkvmerge v5.8.0 ('No Sleep / Pillow') built on Sep 3 2012 05:05:18
Writing library : libebml v1.2.2 + libmatroska v1.3.0

Video
ID : 1
Format : AVC
Format/Info : Advanced Video Codec
Format profile : [email protected]
Format settings, CABAC : Yes
Format settings, ReFrames : 9 frames
Codec ID : V_MPEG4/ISO/AVC
Duration : 1h 45mn
Bit rate : 5 491 Kbps
Width : 1 280 pixels
Height : 696 pixels
Display aspect ratio : 1.85:1
Frame rate mode : Constant
Frame rate : 23.976 fps
Color space : YUV
Chroma subsampling : 4:2:0
Bit depth : 8 bits
Scan type : Progressive
Bits/(Pixel*Frame) : 0.257
Stream size : 3.97 GiB (82%)
Writing library : core 112
Encoding settings : cabac=1 / ref=9 / deblock=1:-3:-3 / analyse=0x3:0x113 / me=umh / subme=10 / psy=1 / psy_rd=1,00:0,00 / mixed_ref=1 / me_range=64 / chroma_me=1 / trellis=2 / 8x8dct=1 / cqm=0 / deadzone=21,11 / fast_pskip=1 / chroma_qp_offset=-2 / threads=9 / sliced_threads=0 / nr=0 / decimate=1 / interlaced=0 / constrained_intra=0 / bframes=9 / b_pyramid=2 / b_adapt=2 / b_bias=0 / direct=1 / weightb=1 / open_gop=0 / weightp=2 / keyint=240 / keyint_min=23 / scenecut=40 / intra_refresh=0 / rc_lookahead=50 / rc=2pass / mbtree=1 / bitrate=5491 / ratetol=1,0 / qcomp=0,60 / qpmin=3 / qpmax=51 / qpstep=4 / cplxblur=20,0 / qblur=0,5 / ip_ratio=1,40 / aq=1:1,00
Default : Yes
Forced : No
Color primaries : BT.709
Transfer characteristics : BT.709
Matrix coefficients : BT.709

Audio #1
ID : 2
Format : AC-3
Format/Info : Audio Coding 3
Mode extension : CM (complete main)
Format settings, Endianness : Big
Codec ID : A_AC3
Duration : 1h 45mn
Bit rate mode : Constant
Bit rate : 640 Kbps
Channel(s) : 6 channels
Channel positions : Front: L C R, Side: L R, LFE
Sampling rate : 48.0 KHz
Bit depth : 16 bits
Compression mode : Lossy
Stream size : 484 MiB (10%)
Language : Ukrainian
Default : Yes
Forced : No

Audio #2
ID : 3
Format : AC-3
Format/Info : Audio Coding 3
Mode extension : CM (complete main)
Format settings, Endianness : Big
Codec ID : A_AC3
Duration : 1h 45mn
Bit rate mode : Constant
Bit rate : 384 Kbps
Channel(s) : 6 channels
Channel positions : Front: L C R, Side: L R, LFE
Sampling rate : 48.0 KHz
Bit depth : 16 bits
Compression mode : Lossy
Stream size : 291 MiB (6%)
Language : English
Default : No
Forced : No

Text
ID : 4
Format : PGS
Muxing mode : zlib
Codec ID : S_HDMV/PGS
Codec ID/Info : The same subtitle format used on BDs/HD-DVDs
Language : English
Default : No
Forced : No
log:
[info]: frame I:1670 Avg QP:14,72 size:185268 PSNR Mean Y:47,96 U:49,88 V:51,21 Avg:48,63 Global:48,04
[info]: frame P:32995 Avg QP:17,61 size: 54721 PSNR Mean Y:45,85 U:48,33 V:50,19 Avg:46,61 Global:45,59
[info]: frame B:117592 Avg QP:21,07 size: 19054 PSNR Mean Y:44,08 U:46,79 V:49,40 Avg:44,92 Global:44,07
[info]: consecutive B-frames: 1,4% 2,0% 9,5% 18,6% 16,4% 44,4% 4,8% 1,3% 0,9% 0,6%
[info]: mb I I16..4: 5,5% 72,9% 21,6%
[info]: mb P I16..4: 1,3% 10,2% 1,4% P16..4: 33,7% 27,9% 15,5% 0,0% 0,0% skip:10,1%
[info]: mb B I16..4: 0,1% 1,6% 0,1% B16..8: 39,6% 12,0% 3,8% direct: 5,8% skip:37,1% L0:45,4% L1:43,1% BI:11,4%
[info]: 8x8 transform intra:80,4% inter:61,8%
[info]: coded y,uvDC,uvAC intra: 88,8% 86,5% 72,7% inter: 28,5% 24,9% 11,3%
[info]: i16 v,h,dc,p: 51% 13% 7% 30%
[info]: i8 v,h,dc,ddl,ddr,vr,hd,vl,hu: 12% 9% 9% 9% 13% 12% 13% 11% 12%
[info]: i4 v,h,dc,ddl,ddr,vr,hd,vl,hu: 13% 9% 5% 9% 15% 14% 13% 11% 12%
[info]: i8c dc,h,v,p: 52% 17% 15% 16%
[info]: Weighted P-Frames: Y:3,7% UV:2,3%
[info]: ref P L0: 42,7% 10,0% 19,9% 6,9% 6,7% 4,0% 4,3% 2,3% 2,7% 0,3% 0,0%
[info]: ref B L0: 67,9% 13,9% 6,9% 4,1% 3,0% 2,5% 1,3% 0,6%
[info]: ref B L1: 91,2% 8,8%
[info]: SSIM Mean Y:0,9772604 (16,432db)
[info]: PSNR Mean Y:44,504 U:47,155 V:49,588 Avg:45,328 Global:44,391 kb/s:5486,96
Скріншоти:
Original vs Encode




Джерело: +
Подяка LX340 - за готову доріжку до першої частини, восвобода - за наданий mp3 запис звуку до другої частини, hellforces - за постер до перших двох частин.
В доріжці до першої частини прибрано розсинхрон. Доріжка до другої частини перероблена в 5.1 мною.
Особиста оцінка: 10 - без зайвих вагань рекомендую всім!


Срібний реліз (на рейтинг впливає 50% завантаженого)
 Трекер:    Зареєстрований   

Завантажити / скачати фільм українською



відео для новачків



 Зареєстрований:   2012-09-12 23:46
 Розмір:   13.31 GB 
 Оцінка фільму:   10/10 (Голосів: 29)
   
bot 
робот


З нами з: 30.09.07
Востаннє: 26.05.05
Повідомлень: 15989

2012-05-31 00:58  
Тему перенесено з Анонси релізів від Відео Гуртом до форуму Фільми в HD


Zeus62

fooks 
Поважний учасник


З нами з: 17.10.11
Востаннє: 30.11.16
Повідомлень: 239

2012-05-31 10:06  
люди є доріжка з кінотеатру, але незнаю чи робити реліз, бо якість відео поганенька(
Дмитро митро 
Відео Гуртом - дизайнер
Відео Гуртом - дизайнер


З нами з: 18.02.09
Востаннє: 01.12.16
Повідомлень: 711

2012-05-31 10:49  
А я не розумію навіщо створювати дилогію, якщо скоро буде ІІІ частина. Хіба щшо потім переобити у трилогію? Confused
fooks 
Поважний учасник


З нами з: 17.10.11
Востаннє: 30.11.16
Повідомлень: 239

2012-05-31 12:11  
Цитата:
Хіба щшо потім переобити у трилогію


звичайно!

Zeus62 
Відео Гуртом - команда HD
Відео Гуртом - команда HD


З нами з: 29.12.08
Востаннє: 16.11.16
Повідомлень: 330

2012-05-31 15:05  
Цитата:
я не розумію навіщо створювати дилогію, якщо скоро буде ІІІ частина.

А я в свою чергу не розумію, чому ти не розумієш, навіщо її було створювати. Ти подивись на строки виходу третьої частини. Вона на ДВД аж в середині вересня начебто вийде, якщо не помиляюсь. То питається навіщо чекати?
Цитата:
Хіба щшо потім переобити у трилогію

Зрозуміло, що як вийде в Blu-Ray третя частина, то я зроблю трилогію 720р.

ratbol 
Модератор HD


З нами з: 03.02.09
Востаннє: 01.12.16
Повідомлень: 1088

2012-09-14 11:06  
За реліз дякую, але:
1 частина
- розтягнене зображення по вертикалі
2 частина
- кадри порівняння неідентичні
- що трапилось з кольорами, чи може скріни робили різними плеєрами?
3 частина
- знову неідентичні кадри, якість толком не визначити...
- знову розтягнення зображення по вертикалі, так, воно малопомітне, але все ж неправильно
- що з передостаннім кадром з сорсу у третій частині, якщо можливо замінити.

Zeus62 
Відео Гуртом - команда HD
Відео Гуртом - команда HD


З нами з: 29.12.08
Востаннє: 16.11.16
Повідомлень: 330

2012-09-14 11:26  
Цитата:
За реліз дякую, але:
1 частина
- розтягнене зображення по вертикалі
2 частина
- кадри порівняння неідентичні
- що трапилось з кольорами, чи може скріни робили різними плеєрами?
3 частина
- знову неідентичні кадри, якість толком не визначити...
- знову розтягнення зображення по вертикалі, так, воно малопомітне, але все ж неправильно
- що з передостаннім кадром з сорсу у третій частині, якщо можливо замінити.

З приводу розтягнення я вже говорив, що співвідношення визначає програма. Тобто я не вручну виставляю розмір кадрів. І я наприклад не можу вгадати, який потрібен розмір щоб зображення не розтягувати. Якщо хтось навчить як правильно обирати співвідношення, то тоді буде все ок. Хоча і кажеш, що зображення розтягнуте, але мені це не помітно. У третій частині з тим кадром все гаразд, все коректно відображається. Не знаю що там не так. А щодо ідентичності, то я думаю і так зрозуміло, що досить важко впіймати ідентичні кадри з різних відеопотоків. Так що те, що іноді злегка промахуюсь - закономірна річ.

taras1994 
Почесний оцифрувальник літератури


З нами з: 23.03.12
Востаннє: 30.11.16
Повідомлень: 5096

2012-09-14 11:39  
Питання, то виправили розмір кадру?
ratbol 
Модератор HD


З нами з: 03.02.09
Востаннє: 01.12.16
Повідомлень: 1088

2012-09-14 11:43  
Zeus62
Дивно, що програма визначає співвідошення неправильно...
На рахунок ідентичних скрінів, то зараз працюю над інстуркцією як їх робити і вивести тип кадру, але ще не закінчив. З простіших варіантів, можу порадити брати, наприклад, перший або останній кадр конкретних епізодів, так не промахнешся.
taras1994
Різниця помітна якщо порівнювати з оригінальним скріншотом, дивлячись фільм її не помітити.

Zeus62 
Відео Гуртом - команда HD
Відео Гуртом - команда HD


З нами з: 29.12.08
Востаннє: 16.11.16
Повідомлень: 330

2012-09-14 12:08  
Цитата:
Питання, то виправили розмір кадру?

Ти розумієш, що щоб виправити розмір кадру, потрібно переконвертовувати фільм заново? З моєю потужністю ще можна це витерпіти(2-3 год перший прохід та 6-7 год другий прохід). А якби був слабкий комп? Це декілька днів насмарку.

Додано через 1 хвилину 46 секунд:

Цитата:
Дивно, що програма визначає співвідошення неправильно...
На рахунок ідентичних скрінів, то зараз працюю над інстуркцією як їх робити і вивести тип кадру, але ще не закінчив. З простіших варіантів, можу порадити брати, наприклад, перший або останній кадр конкретних епізодів, так не промахнешся.

Теж дивуюсь. Коли закінчиш інструкцію то мені на неї посилання дай будь ласка. Почитаю.

taras1994 
Почесний оцифрувальник літератури


З нами з: 23.03.12
Востаннє: 30.11.16
Повідомлень: 5096

2012-09-14 12:51  
Zeus62 написано:
Ти розумієш,

ні не розумію, але тепер буду розуміти. А відеокарта під час цих проходів використовується?

Zeus62 
Відео Гуртом - команда HD
Відео Гуртом - команда HD


З нами з: 29.12.08
Востаннє: 16.11.16
Повідомлень: 330

2012-09-14 21:11  
Цитата:
А відеокарта під час цих проходів використовується?

Звичайно. Вона задіяна, коли, наприклад, прощитуються ефекти, переходи і т.п. Її роль в кодуванні теж значна. Але також і від софту залежить справа. Дивлячись яка прога, так вона і розподіляє навантаження на проц, відеокарту і т.п.

braveboy 
Відео Гуртом - команда HD
Відео Гуртом - команда HD


З нами з: 15.06.10
Востаннє: 29.10.16
Повідомлень: 958

2012-09-15 06:09  
Zeus62 
Відео Гуртом - команда HD
Відео Гуртом - команда HD


З нами з: 29.12.08
Востаннє: 16.11.16
Повідомлень: 330

2012-09-15 06:53  
Цитата:
читай http://rutracker.org/forum/viewtopic.php?t=2639394

Дякую

lpershyi 
Попереджень: 2
Попереджень: 2 


З нами з: 04.01.11
Востаннє: 30.11.16
Повідомлень: 2622

2012-09-15 12:53  
не сподобалась переробка людей в чорному після прем'єрного показу 15 річної давності. Сюжет передбачуваний, спецефекти жодні, графіка, музика ніяка в порівнянні з роком 1996!
oleg.plavkov 
Відео Гуртом - фільмокрай
Відео Гуртом - фільмокрай


З нами з: 04.01.12
Востаннє: 26.11.16
Повідомлень: 304

2012-09-15 12:58  
Zeus62 написано:
Такі роботу
Виправ

Додано через 37 секунд:

Zeus62 написано:
найсекретнішій організації
виправ
abodnya 
Відео Гуртом - фільмокрай
Відео Гуртом - фільмокрай


З нами з: 02.11.08
Востаннє: 04.12.16
Повідомлень: 5960

2012-09-15 13:02  
lpershyi написано:
Сюжет передбачуваний

А мені сюжет здався дуже класним, того, що траплялося під кінець фільму мені важко було передбачити

Zeus62 
Відео Гуртом - команда HD
Відео Гуртом - команда HD


З нами з: 29.12.08
Востаннє: 16.11.16
Повідомлень: 330

2012-09-15 13:33  
Цитата:
А мені сюжет здався дуже класним, того, що траплялося під кінець фільму мені важко було передбачити

Згоден з тобою. Мене третя частина не розчарувала. Подивився з задоволенням.
Цитата:
Виправ

Ок

taras1994 
Почесний оцифрувальник літератури


З нами з: 23.03.12
Востаннє: 30.11.16
Повідомлень: 5096

2012-09-15 20:14  
Zeus62 написано:
Згоден з тобою. Мене третя частина не розчарувала. Подивився з задоволенням.

мене сюжет в такому фільмі не вразив, лише так іноді посміятися можна.

В кінотеатр я б не пішов дивитися цей фільм, бо він того не вартий, але подивитися більше ніж один раз буде цікаво. Тобто враження від фільму нейтральні, нічого особливого.

sergunik 
Новенький


З нами з: 05.03.13
Востаннє: 04.12.16
Повідомлень: 4

2016-07-17 11:10  
Частина перша - ОК
Частина друга - після третини фільму починається розсинхронізація звуку і картинки. А потім відео взагалі вилітає.
Третя частина - не відтворюється на телевізорі.

Ваш часовий пояс: GMT + 2 Години

Нова тема   Відповісти