Завантажити та скачати торренти українською


Право на пам'ять / Memory Run (1995)

Нові коментарі

Нова тема   Відповісти
Автор Повідомлення
legos25 
Відео Гуртом - запис з ТБ
Відео Гуртом - запис з ТБ


З нами з: 02.02.10
Востаннє: 08.12.16
Повідомлень: 1106

2012-05-30 20:56  
Право на пам'ять / Memory Run (1995)

Право на пам'ять / Memory Run (1995)


Жанр: фантастика , бойовик , трилер
Країна: США



Кіностудія / кінокомпанія: Meridian Entertainment
Режисер: Аллан А. Голдштейн
Актори: Карен Даффі, Сол Рубінек, Метт Маккой, Лінн Кормек, Торрі Хіггінсон, Беррі Морс, Кріс Мейкпіс, Джонатан Теннер, Наталі Редфорд, Найджел Беннетт

Сюжет:
Уряд перебуває під контролем корумпованої і всесильної корпорації «Життя». Підпільний рух опору «Союз» бореться з безмежним режимом. Між ними злочинні банди, які грабують еліту і торгують з революціонерами. Виріс на вулиці після вбивства батьків, Андре Фуллер очолює одне з таких злочинних підприємств. Потрапивши в руки корпорації, він стає піддослідним кроликом жахливого експерименту - його свідомість пересідає в тіло убитої в буквальному розумінні під ним коханки.


Тривалість: 01:25:14
Якість:
Відео:
кодек:
розмір кадру: 640 х 480
бітрейт: 2255 кб/с

Аудіо:
мова: українська
переклад: багатоголосий закадровий
кодек: 2.0
бітрейт: 192 кб/с

Подяка за доріжку, пану dvorsky.
Джерело озвучення:


Скріншоти





Джерело:
Особиста оцінка: 0 - не дивився


Срібний реліз (на рейтинг впливає 50% завантаженого)
 Трекер:    Зареєстрований   

Завантажити / скачати фільм українською



відео для новачків



 Зареєстрований:   2012-05-31 00:44
 Розмір:   1.46 GB 
 Оцінка фільму:   9.3/10 (Голосів: 6)
   
Givi 
Модератор відео


З нами з: 25.02.08
Востаннє: 08.12.16
Повідомлень: 2862

2012-05-30 21:07  
На жаль, вимушений зняти реєстрацію торенту до перейменування файлу роздачі за стандартами ВГ.
http://toloka.to/t3644

urij546724 
Відео Гуртом - фільмокрай
Відео Гуртом - фільмокрай


З нами з: 16.03.10
Востаннє: 08.12.16
Повідомлень: 5222

2012-05-30 21:09  
legos25 написано:
кодек: MPEG-4

Це вкажи детальніше ( чи DivX)

legos25 
Відео Гуртом - запис з ТБ
Відео Гуртом - запис з ТБ


З нами з: 02.02.10
Востаннє: 08.12.16
Повідомлень: 1106

2012-05-30 21:16  
urij546724 написано:
Це вкажи детальніше ( чи DivX)

Звичайний мпег-4, ви про що?
INFO
C:\Documents and Settings\Administrator\Мои документы\Мои Торренты\Memory Run (1995) [Hurtom].avi
General
Complete name : C:\Documents and Settings\Administrator\Мои документы\Мои Торренты\Memory Run (1995) [Hurtom].avi
Format : AVI
Format/Info : Audio Video Interleave
Format profile : OpenDML
File size : 1.37 GiB
Duration : 1h 25mn
Overall bit rate : 2 303 Kbps
Writing application : Lavf51.12.1
Video #0
ID : 0
Format : MPEG-4 Visual
Format profile : [email protected]
Format settings, BVOP : No
Format settings, QPel : No
Format settings, GMC : No warppoints
Format settings, Matrix : Default (H.263)
Codec ID : FMP4
Duration : 1h 25mn
Bit rate : 2 099 Kbps
Width : 640 pixels
Height : 480 pixels
Display aspect ratio : 4:3
Frame rate : 25.000 fps
Resolution : 24 bits
Colorimetry : 4:2:0
Scan type : Progressive
Bits/(Pixel*Frame) : 0.273
Stream size : 1.25 GiB (91%)
Writing library : Lavc51.40.4
Audio #1
ID : 1
Format : AC-3
Format/Info : Audio Coding 3
Codec ID : 2000
Duration : 1h 25mn
Bit rate mode : Constant
Bit rate : 192 Kbps
Channel(s) : 2 channels
Channel positions : L R
Sampling rate : 44.1 KHz
Resolution : 16 bits
Stream size : 117 MiB (8%)
Alignment : Aligned on interleaves
Interleave, duration : 35 ms (0.87 video frame)

Imperatore 
Відео Гуртом - підтримка та поширення
Відео Гуртом - підтримка та поширення


З нами з: 09.10.11
Востаннє: 07.12.16
Повідомлень: 337

2012-05-30 22:43  
Цитата:
Уряд перебуває під контролем корумпованою і всесильної корпорації «Життя».


корумпованої

urij546724 
Відео Гуртом - фільмокрай
Відео Гуртом - фільмокрай


З нами з: 16.03.10
Востаннє: 08.12.16
Повідомлень: 5222

2012-05-30 22:59  
legos25 написано:
Codec ID : FMP4

Оце кодек.
MPEG-4 це загальна назва сімейства.

Цей кодек не дуже добрий, бо в старіших наборах кодеків він може нестабільно опрацьовуватись. В майбутньому краще обирай стандартні.

legos25 
Відео Гуртом - запис з ТБ
Відео Гуртом - запис з ТБ


З нами з: 02.02.10
Востаннє: 08.12.16
Повідомлень: 1106

2012-05-31 00:01  
Вибачте, перероблю реліз. Побачив величезний розсинхрон.
+Виконаю побажання модератора

urij546724 
Відео Гуртом - фільмокрай
Відео Гуртом - фільмокрай


З нами з: 16.03.10
Востаннє: 08.12.16
Повідомлень: 5222

2012-05-31 12:04  
legos25 написано:
+Виконаю побажання модератора

Ти що перекодував ріп? Wink (2)

Ваш часовий пояс: GMT + 2 Години

Нова тема   Відповісти