Завантажити та скачати торренти українською


Кіт у чоботях / Puss in Boots (2011) AVC

Нові коментарі

Нова тема   Відповісти
Автор Повідомлення
Drool 
VIP


З нами з: 17.04.10
Востаннє: 10.12.16
Повідомлень: 1270

2012-05-29 22:11  
Кіт у чоботях / Puss in Boots (2011) AVC

Жанр: мультфільм, фентезі, комедія, пригоди
Країна: США



Кіностудія / кінокомпанія: DreamWorks Animation
Режисер: Кріс Міллер
Ролі озвучують: Антоніо Бандерас, Сальма Хаєк, Зак Галіфіанакіс, Біллі Боб Торнтон, Емі Седаріс, Констанс Марі, Гільєрмо дель Торо, Річ Дітль, Райан Крего, Том Вілер

Сюжет:
Як і в кожного легендарного героя, у Кота було важке дитинство – ще немовлям він потрапив у дитячий притулок маленького іспанського (чи мексиканського?) містечка. Там Кіт зустрів яйце на ім'я Хитун Александр Бовтун, який ще у дитинстві склав хитрий план викрадення гуски, що несе золоті яйця. Допомогти у його здійсненні мали чарівні боби.

Друзі організували Бобовий клуб (головне правило якого – "нікому не розповідати про Бобовий клуб") і стали шукати способи наблизитися до своєї мрії. Згодом Кіт розпочав свій шлях народного героя та рятівника бабусь, а Бовтун, засліплений жадобою багатства, потрапив у в'язницю. Через сім років і вони знову возз'єдналися, аби згадати старі часи та вкрасти омріяну гуску. Допомагає їм у цьому красуня Кицька М'яколапка.

Пухнастий герой картини, мов справжній мачо-супермен, танцює, б'ється на шпагах, зваблює гарненьких киць, зачаровує своєю тваринною харизмою та від'їздить у захід сонця на баскому скакуні.


Тривалість: 01:30:14
Якість: AVC
Відео:
кодек:
розмір кадру: 1150x490
бітрейт: 2349 кб/с

Аудіо:
мова: українська
переклад: професійний дубльований
кодек: 5.1
бітрейт: 448 кб/с

Джерело озвучення:


Субтитри:
мова: українська
тип: програмні (форсовані, м'які)
формат: *.srt
Звіт MediaInfo
General
Unique ID : 174867035120110132576371118241893934632 (0x838E2A79E40080B88D9149BF3B416628)
Complete name : /mnt/disk_d/Video/Мультфильмы/Puss.in.Boots.2011.Ukr.Dub.AVC.RG.25.Kadr.mkv
Format : Matroska
File size : 1.76 GiB
Duration : 1h 30mn
Overall bit rate : 2 799 Kbps
Movie name : Кіт у чоботях / Puss in Boots (2011) AVC | video by RG 25 Кадр
Encoded date : UTC 2012-05-21 06:55:49
Writing application : mkvmerge v3.4.0 ('Rapunzel') збірка від May 15 2010 09:38:20
Writing library : libebml v0.8.0 + libmatroska v0.9.0

Video
ID : 1
Format : AVC
Format/Info : Advanced Video Codec
Format profile : [email protected]
Format settings, CABAC : Yes
Format settings, ReFrames : 10 frames
Codec ID : V_MPEG4/ISO/AVC
Duration : 1h 30mn
Bit rate : 2 349 Kbps
Width : 1 150 pixels
Height : 490 pixels
Display aspect ratio : 2.35:1
Frame rate : 23.976 fps
Color space : YUV
Chroma subsampling : 4:2:0
Bit depth : 8 bits
Scan type : Progressive
Bits/(Pixel*Frame) : 0.174
Stream size : 1.45 GiB (82%)
Title : Puss in Boots (2011) AVC | RG 25 Кадр
Writing library : core 120 r2164 da19765
Encoding settings : cabac=1 / ref=10 / deblock=1:-2:-1 / analyse=0x3:0x113 / me=umh / subme=11 / psy=1 / psy_rd=0.95:0.05 / mixed_ref=1 / me_range=32 / chroma_me=1 / trellis=2 / 8x8dct=1 / cqm=0 / deadzone=21,11 / fast_pskip=0 / chroma_qp_offset=-3 / threads=6 / sliced_threads=0 / nr=0 / decimate=1 / interlaced=0 / bluray_compat=0 / constrained_intra=0 / bframes=8 / b_pyramid=2 / b_adapt=1 / b_bias=0 / direct=1 / weightb=1 / open_gop=0 / weightp=2 / keyint=240 / keyint_min=22 / scenecut=40 / intra_refresh=0 / rc=2pass / mbtree=0 / bitrate=2349 / ratetol=1.0 / qcomp=0.70 / qpmin=10 / qpmax=61 / qpstep=4 / cplxblur=20.0 / qblur=0.5 / ip_ratio=1.40 / pb_ratio=1.30 / aq=2:0.70

Audio
ID : 2
Format : AC-3
Format/Info : Audio Coding 3
Mode extension : CM (complete main)
Codec ID : A_AC3
Duration : 1h 30mn
Bit rate mode : Constant
Bit rate : 448 Kbps
Channel(s) : 6 channels
Channel positions : Front: L C R, Side: L R, LFE
Sampling rate : 48.0 KHz
Bit depth : 16 bits
Compression mode : Lossy
Stream size : 289 MiB (16%)
Title : Ukrainian
Language : Ukrainian

Text
ID : 3
Format : UTF-8
Codec ID : S_TEXT/UTF8
Codec ID/Info : UTF-8 Plain Text
Title : Ukrainian Forsed
Language : Ukrainian
Скріншоти






Офіційний трейлер

Походження: відеоряд взято з ріпу RG 25 Кадр
Особиста оцінка: 10 - без зайвих вагань рекомендую всім!


 Трекер:    Зареєстрований   

Завантажити / скачати мультфільм українською



відео для новачків



 Зареєстрований:   2012-05-29 22:11
 Розмір:   1.76 GB 
 Оцінка мультфільму:   9.5/10 (Голосів: 53)
   
Givi 
Модератор відео


З нами з: 25.02.08
Востаннє: 08.12.16
Повідомлень: 2862

2012-05-29 22:23  
Drool написано:

Субтитри:
мова: українська


Додайте в шапку.
І станьте на роздачу.

Drool 
VIP


З нами з: 17.04.10
Востаннє: 10.12.16
Повідомлень: 1270

2012-05-29 22:26  
Givi написано:
1. Додайте в шапку.
2. І станьте на роздачу.

1. Ой, провтикав. DONE.
2. Ну а як же без цього? Wink (1)

braveboy 
Відео Гуртом - команда HD
Відео Гуртом - команда HD


З нами з: 15.06.10
Востаннє: 29.10.16
Повідомлень: 958

2012-05-30 03:53  
Drool написано:

Text
ID : 3
Format : UTF-8
Codec ID : S_TEXT/UTF8
Codec ID/Info : UTF-8 Plain Text
Title : Ukrainian Forsed
Language : Ukrainian


саби форсовані думаю в назві їх не потрібно

Drool 
VIP


З нами з: 17.04.10
Востаннє: 10.12.16
Повідомлень: 1270

2012-05-30 07:26  
Ну, ви тут з модератором відео Givi розберіться - треба саби в назві вказувати чи ні, а я потім відредагую.
DеLight 
Відео Гуртом - фільмокрай
Відео Гуртом - фільмокрай


З нами з: 24.08.11
Востаннє: 17.11.16
Повідомлень: 663

2013-01-04 12:07  
Специфічний такий мульт-казка, очікував трішки більшого, 7/10.

Додано через 1 хвилину 11 секунд:

На рахунок форсованих субтитрів, то вони у заголовку не пишуться!

Ваш часовий пояс: GMT + 2 Години

Нова тема   Відповісти