Завантажити та скачати торренти українською


Код доступу «Кейптаун» / Safe House (2012) 720p | Line

Нові коментарі

Нова тема   Відповісти
Автор Повідомлення
oleh_oleh 
Свій


З нами з: 05.05.11
Востаннє: 08.12.16
Повідомлень: 67

2012-05-29 14:34  
Код доступу «Кейптаун» / Safe House (2012) 720p | Line

Код доступу «Кейптаун» / Safe House (2012) 720p | Line


Жанр: екшн, кримінальний, бойовик
Країна: США



Кіностудія / кінокомпанія: Intrepid Pictures, Moonlighting Films, Relativity Media, Stuber Productions; мейджор – Universal Pictures International
Режисер: Деніель Еспіноза
Актори: Дензел Вашингтон, Раян Рейнолдс, Вера Варміга, Брендан Глісон, Сем Шепард

Сюжет:
Випускник Гарварду Метт мріє зі своєю нареченою переїхати до Парижу. Але вона не знає, що вже рік він працює на ЦРУ.
Легендарний агент ЦРУ Фрост володіє секретною інформацією. Але він вийшов з-під контролю, і тепер його головне правило: «не довіряй нікому - тебе зрадить кожен».
Їхні шляхи перетнуться в одному з найкрасивіших міст світу - Кейптауні, де кожен має зробити свій вибір.


Тривалість: 01:54:54
Якість:
Відео:
кодек:
розмір кадру: 1280 Х 528
бітрейт: 5297 кб/с

Аудіо:
мова: українська
переклад: професійний дубльований
кодек: 2.0
бітрейт: 384 кб/с

Постер від Gelios
Джерело озвучення: Line від Skiff

MediaInfo
Format : Matroska
File size : 4.56 GiB
Duration : 1h 54mn
Overall bit rate : 5 677 Kbps
Encoded date : UTC 2012-05-26 07:26:44
Writing application : mkvmerge v4.2.0 ('No Talking') збірка від Jul 28 2010 18:38:23
Writing library : libebml v1.0.0 + libmatroska v1.0.0

Video
ID : 1
Format : AVC
Format/Info : Advanced Video Codec
Format profile : [email protected]
Format settings, CABAC : Yes
Format settings, ReFrames : 5 frames
Codec ID : V_MPEG4/ISO/AVC
Duration : 1h 54mn
Bit rate : 5 297 Kbps
Width : 1 280 pixels
Height : 528 pixels
Display aspect ratio : 2.40:1
Frame rate : 23.976 fps
Color space : YUV
Chroma subsampling : 4:2:0
Bit depth : 8 bits
Scan type : Progressive
Bits/(Pixel*Frame) : 0.327
Stream size : 4.16 GiB (91%)
Writing library : core 125 r2200 999b753
Encoding settings : cabac=1 / ref=5 / deblock=1:0:0 / analyse=0x3:0x133 / me=umh / subme=7 / psy=1 / psy_rd=1.00:0.00 / mixed_ref=1 / me_range=16 / chroma_me=1 / trellis=1 / 8x8dct=1 / cqm=0 / deadzone=21,11 / fast_pskip=0 / chroma_qp_offset=-2 / threads=12 / lookahead_threads=2 / sliced_threads=0 / nr=0 / decimate=1 / interlaced=0 / bluray_compat=0 / constrained_intra=0 / bframes=3 / b_pyramid=2 / b_adapt=1 / b_bias=0 / direct=1 / weightb=1 / open_gop=0 / weightp=2 / keyint=250 / keyint_min=23 / scenecut=40 / intra_refresh=0 / rc_lookahead=40 / rc=2pass / mbtree=1 / bitrate=5297 / ratetol=1.0 / qcomp=0.60 / qpmin=0 / qpmax=69 / qpstep=4 / cplxblur=20.0 / qblur=0.5 / ip_ratio=1.40 / aq=1:1.00
Language : English

Audio
ID : 2
Format : AC-3
Format/Info : Audio Coding 3
Mode extension : CM (complete main)
Codec ID : A_AC3
Duration : 1h 54mn
Bit rate mode : Constant
Bit rate : 384 Kbps
Channel(s) : 2 channels
Channel positions : Front: L R
Sampling rate : 48.0 KHz
Bit depth : 16 bits
Compression mode : Lossy
Stream size : 316 MiB (7%)


Скріншоти




Джерело:
Особиста оцінка: 8 - мені сподобалося


 Трекер:    Зареєстрований   

Завантажити / скачати фільм українською



відео для новачків



 Зареєстрований:   2012-05-29 14:34
 Розмір:   4.56 GB 
 Оцінка фільму:   9.1/10 (Голосів: 30)
   
Інші релізи
vovan4uk89 
Новенький


З нами з: 07.04.12
Востаннє: 20.03.13
Повідомлень: 1

2012-05-29 14:59  
хороший фільм. 9 з 10
KoljaLevko 
Частий відвідувач


З нами з: 29.03.10
Востаннє: 11.12.16
Повідомлень: 47

2012-05-29 17:39  
Ооо... це не mini, але я завантажу
Stepan2009 
VIP


З нами з: 18.09.10
Востаннє: 09.12.16
Повідомлень: 322

2012-05-29 18:33  
Це не міні
Цитата:
бітрейт: 5297 кб/с

Міні, це коли бітрейт менше 3000 кб/с наскільки мені відомо, а може я помиляюсь.

Magnito 
Новенький


З нами з: 23.03.11
Востаннє: 09.12.16
Повідомлень: 3

2012-05-29 20:10  
дайте золото пліззз))
Givi 
Модератор відео


З нами з: 25.02.08
Востаннє: 08.12.16
Повідомлень: 2862

2012-05-29 20:49  
Magnito написано:
дайте золото пліззз))

Причина?

Додано через 1 хвилину 16 секунд:

Допишіть джерело відео, будь ласка (якщо, звісно, це не власний ріп Wink (1))

Ваш часовий пояс: GMT + 2 Години

Нова тема   Відповісти