Завантажити та скачати торренти українською


Ранковий підйом / Morning Glory (2010) 720p-mini Ukr/Eng | Sub Ukr/Eng

Нові коментарі

Нова тема   Відповісти
Автор Повідомлення
Anonymous 







2012-05-28 23:38  
Ранковий підйом / Morning Glory (2010) 720p-mini Ukr/Eng | Sub Ukr/Eng

Ранковий підйом / Morning Glory (2010) 720p-mini Ukr/Eng | Sub Ukr/Eng


Жанр: романтична комедія, драма, мелодрама
Країна: США



Кіностудія / кінокомпанія: Bad Robot; мейджор – Universal Pictures International
Режисер: Роджер Мічелл
Актори: Рейчел Макадамс , Харрісон Форд , Дайан Кітон , Джон Пенкоу , Ванесса Аспіллага , Брюс Олтман , Фіфті Сент , Ті Баррел , Патрік Вілсон , Джеф Голдблюм

Сюжет:
У пошуках нового місця роботи Беккі Фулер (Рейчел МакАдамс) за відсутністю кращих варіантів влаштовується телепродюсером низько-рейтингового ранкового шоу «Morning Glory». Щоб збільшити аудиторію і підняти рейтинг програми Беккі запрошує на посаду ведучого легендарного Майка Помероя (Гаррісон Форд), для якого кращі часи вже давно позаду. Рішення це далеко не бездоганне. Майк виявляється досить впертим і примхливим співробітником і до того ж ніяк не може знайти спільну мову зі своєю колегою Колін Пек (Даян Кітон), з якою він змушений ділити ефір. Постійні конфлікти і проблеми ставлять під загрозу долю шоу і подальшу кар'єру Беккі.


Тривалість: 01:47:28
Якість:
Відео:
кодек:
розмір кадру: 1280 x 528
бітрейт: 2300 кб/с

Аудіо # 1:
мова: українська
переклад: професійний дубльований
кодек: 5.1
бітрейт: 448 кб/с

Аудіо # 2:
мова: англійська
переклад: оригінал
кодек: 2.0
бітрейт: 128 кб/с

Джерело озвучення:


Субтитри:
мова: українська (завантажити ), англійська(завантажити )
тип: програмні (м'які)
формат: *.srt
MediaInfo
General
Unique ID : 187622250800303247492420650221296415672 (0x8D26BB29B1E4A08D98DA43AA569FF3B8)
Complete name : C:\Users\Vasua95\Downloads\Morning Glory (2010) [Ukr & Eng] 720p-mini [Hurtom].mkv
Format : Matroska
Format version : Version 2
File size : 2.16 GiB
Duration : 1h 47mn
Overall bit rate : 2 878 Kbps
Encoded date : UTC 2012-05-28 21:22:25
Writing application : mkvmerge v5.5.0 ('Healer') built on Apr 6 2012 21:43:24
Writing library : libebml v1.2.3 + libmatroska v1.3.0

Video
ID : 1
Format : AVC
Format/Info : Advanced Video Codec
Format profile : [email protected]
Format settings, CABAC : Yes
Format settings, ReFrames : 4 frames
Codec ID : V_MPEG4/ISO/AVC
Duration : 1h 47mn
Bit rate : 2 300 Kbps
Width : 1 280 pixels
Height : 528 pixels
Display aspect ratio : 2.40:1
Frame rate : 23.976 fps
Color space : YUV
Chroma subsampling : 4:2:0
Bit depth : 8 bits
Scan type : Progressive
Bits/(Pixel*Frame) : 0.142
Stream size : 1.68 GiB (78%)
Writing library : core 84 r1400M 20fa784
Encoding settings : cabac=1 / ref=4 / deblock=1:-1:-1 / analyse=0x3:0x113 / me=umh / subme=9 / psy=1 / psy_rd=1.0:0.0 / mixed_ref=1 / me_range=16 / chroma_me=0 / trellis=2 / 8x8dct=1 / cqm=0 / deadzone=21,11 / fast_pskip=1 / chroma_qp_offset=-2 / threads=6 / sliced_threads=0 / nr=0 / decimate=1 / mbaff=0 / constrained_intra=0 / bframes=4 / b_pyramid=0 / b_adapt=2 / b_bias=0 / direct=3 / wpredb=1 / wpredp=2 / keyint=250 / keyint_min=25 / scenecut=40 / intra_refresh=0 / rc_lookahead=40 / rc=2pass / mbtree=1 / bitrate=2300 / ratetol=1.0 / qcomp=0.60 / qpmin=10 / qpmax=51 / qpstep=4 / cplxblur=20.0 / qblur=0.5 / ip_ratio=1.40 / aq=1:1.00 / pulldown=0 / nal_hrd=0
Language : English
Default : Yes
Forced : No

Audio #1
ID : 2
Format : AC-3
Format/Info : Audio Coding 3
Mode extension : CM (complete main)
Format settings, Endianness : Big
Codec ID : A_AC3
Duration : 1h 47mn
Bit rate mode : Constant
Bit rate : 448 Kbps
Channel(s) : 6 channels
Channel positions : Front: L C R, Side: L R, LFE
Sampling rate : 48.0 KHz
Bit depth : 16 bits
Compression mode : Lossy
Stream size : 344 MiB (16%)
Language : Ukrainian
Default : No
Forced : No

Audio #2
ID : 3
Format : AC-3
Format/Info : Audio Coding 3
Mode extension : CM (complete main)
Format settings, Endianness : Big
Codec ID : A_AC3
Duration : 1h 47mn
Bit rate mode : Constant
Bit rate : 128 Kbps
Channel(s) : 2 channels
Channel positions : Front: L R
Sampling rate : 48.0 KHz
Bit depth : 16 bits
Compression mode : Lossy
Stream size : 98.4 MiB (4%)
Language : English
Default : No
Forced : No
Скріншоти




Джерело: & FireBit
Особиста оцінка: 10 - без зайвих вагань рекомендую всім!


 Трекер:    Зареєстрований   

Завантажити / скачати фільм українською



відео для новачків



 Зареєстрований:   2012-05-28 23:38
 Розмір:   2.16 GB 
 Оцінка фільму:   7/10 (Голосів: 15)
   
Givi 
Модератор відео


З нами з: 25.02.08
Востаннє: 08.12.16
Повідомлень: 2862

2012-05-29 07:23  
Чи є суттєва різниця з цим релізом?
http://toloka.to/t25166

Боюсь, це можна вважати повтором Sad (1)

taras1994 
Почесний оцифрувальник літератури


З нами з: 23.03.12
Востаннє: 30.11.16
Повідомлень: 5096

2012-05-29 08:08  
Різниця є :
Тут менший розмір файла
На момент написання тут є сідер
Біт рейтинг тут нижчий.

Отже різниця є це не повтор а зменшена копія, а така повтором не вважається.

Givi 
Модератор відео


З нами з: 25.02.08
Востаннє: 08.12.16
Повідомлень: 2862

2012-05-29 20:04  
taras1994 написано:

Різниця є :
Тут менший розмір файла
На момент написання тут є сідер
Біт рейтинг тут нижчий.

Отже різниця є це не повтор а зменшена копія, а така повтором не вважається.

Та я це все бачу, бачу що різниця є і правилам відповідає. Але єдине, що втримує цю роздачу - це різниця в бітрейті відео.

braveboy 
Відео Гуртом - команда HD
Відео Гуртом - команда HD


З нами з: 15.06.10
Востаннє: 29.10.16
Повідомлень: 958

2012-05-30 03:48  
Vasua95 написано:

MediaInfo
Bit rate : 2 300 Kbps


Vasua95 вкажи правильно бітрейт

Додано через 46 секунд:

саби варто було додати в контейнер

knowgod 
Новенький


З нами з: 05.12.09
Востаннє: 11.12.16
Повідомлень: 11

2012-06-10 02:18  
Дуже тихий звук в українській доріжці.
Зазвичай я переглядаю фільми на ТВ, ставлячи гучність на 15-25. Тут довелося піднімати до 45-60.

Ваш часовий пояс: GMT + 2 Години

Нова тема   Відповісти